Ballo Ballo-Explota Explota ( Full Torrent Magnet Download

Download Torrent Ballo Ballo-Explota Explota ( Movie Full in HD Result. Movie Ballo Ballo-Explota Explota ( Torrent Download full. Movie Ballo Ballo-Explota Explota ( torrent Magnet Download Full. Ballo Ballo-Explota Explota ( Full Movie Torrent Download And Magnet Download For your PC And Mobiles. Latest Movie Ballo Ballo-Explota Explota ( Download Link In Bottom.

Torrent And Magnet Links Below

Regista: Nacho Álvarez

Genere: Commedia, Musicale

Anno: 2020

Paese: Italia, Spagna

Durata: 116 min

Distribuzione: Amazon Prime Video

Ingrid García Jonsson, Verónica Echegui, Fernando Guallar, Giuseppe Maggio, Fran Morcillo, Fernando Tejero, Pedro Casablanc, Carlos Hipólito, Natalia Millán

Ballo Ballo, film diretto da Nacho Álvarez, è ambientato in Spagna durante gli anni Settanta, periodo storico molto difficile per costumi e cultura, spesso attaccati dalla censura del regime franchista. Racconta la storia di Maria (Ingrid García Jonsson), una ragazza spagnola che, dopo aver lasciato il suo fidanzato sull’altare a Roma, decide di tornare nella sua terra natìa. Giunta a Madrid, la giovane, grande amante del ballo, si mette alla ricerca di un’aspirazione, di qualcosa che la faccia sentire realizzata. Dopo l’incontro con Amparo (Verónica Echegui), uno spirito libero che lavora come hostess, Maria va a vivere insieme a lei e inizia a lavorare come hostess di terra.

Poco tempo dopo, grazie a un colpo di fortuna, la ragazza riesce a coronare uno dei suoi sogni ed entra nel corpo di ballo di un noto programma televisivo, “Las noches de Rosa”. Durante lo spettacolo conosce e si innamora perdutamente di Pablo (Fernando Guallar), il figlio del censore della rete televisiva, Celedonio (Pedro Casablanc), un uomo anziano, franchista e contrario a qualsiasi cambiamento. Maria non è molo d’accordo con la politica della censura attuata da Celedonio e teme che Pablo segua le idee paterne. Le cose si complicano, quando giunge a Madrid anche Massimiliano (Giuseppe Maggio), l’uomo che la ragazza stava per sposare a Roma…

A movie based on the hit songs by the popular italian singer Raffaella Carrà.




General

Unique ID : 312706526460358486421568682014299043992 (0xEB4116188338E3C8D2D17E81DDA6B898)

Complete name : Ballo Ballo-Explota Explota (2020) ITA-SPA Ac3 5.1 BDRip 1080p H264 [ArMor].mkv

Format : Matroska

Format version : Version 4

File size : 4.71 GiB

Duration : 1 h 57 min

Overall bit rate : 5 752 kb/s

Encoded date : UTC 2021-01-25 13:50:25

Writing application : mkvmerge v52.0.0 (‘Secret For The Mad’) 64-bit

Writing library : libebml v1.4.1 + libmatroska v1.6.2 / Lavf58.29.100

Video

ID : 1

Format : AVC

Format/Info : Advanced Video Codec

Format profile : [email protected]
Format settings : CABAC / 4 Ref Frames

Format settings, CABAC : Yes

Format settings, Reference frames : 4 frames

Codec ID : V_MPEG4/ISO/AVC

Duration : 1 h 57 min

Bit rate : 5 000 kb/s

Width : 1 920 pixels

Height : 804 pixels

Display aspect ratio : 2.40:1

Frame rate mode : Constant

Frame rate : 24.000 FPS

Color space : YUV

Chroma subsampling : 4:2:0

Bit depth : 8 bits

Scan type : Progressive

Bits/(Pixel*Frame) : 0.135

Stream size : 3.97 GiB (84%)

Writing library : x264 core 157 r2935 545de2f

Encoding settings : cabac=1 / ref=2 / deblock=1:0:0 / analyse=0x1:0x111 / me=hex / subme=6 / psy=1 / psy_rd=1.00:0.00 / mixed_ref=1 / me_range=16 / chroma_me=1 / trellis=1 / 8x8dct=0 / cqm=0 / deadzone=21,11 / fast_pskip=1 / chroma_qp_offset=-2 / threads=12 / lookahead_threads=2 / sliced_threads=0 / nr=0 / decimate=1 / interlaced=0 / bluray_compat=0 / constrained_intra=0 / bframes=3 / b_pyramid=2 / b_adapt=1 / b_bias=0 / direct=1 / weightb=1 / open_gop=0 / weightp=1 / keyint=240 / keyint_min=24 / scenecut=40 / intra_refresh=0 / rc_lookahead=30 / rc=abr / mbtree=1 / bitrate=5000 / ratetol=1.0 / qcomp=0.60 / qpmin=0 / qpmax=69 / qpstep=4 / vbv_maxrate=50000 / vbv_bufsize=62500 / nal_hrd=none / filler=0 / ip_ratio=1.40 / aq=1:1.00

Default : Yes

Forced : No

Color range : Limited

Color primaries : BT.709

Transfer characteristics : BT.709

Matrix coefficients : BT.709

Audio #1

ID : 2

Format : AC-3

Format/Info : Audio Coding 3

Commercial name : Dolby Digital

Codec ID : A_AC3

Duration : 1 h 57 min

Bit rate mode : Constant

Bit rate : 448 kb/s

Channel(s) : 6 channels

Channel layout : L R C LFE Ls Rs

Sampling rate : 48.0 kHz

Frame rate : 31.250 FPS (1536 SPF)

Compression mode : Lossy

Stream size : 375 MiB (8%)

Title : WEBDL EAC3

Language : Italian

Service kind : Complete Main

Default : Yes

Forced : No

Audio #2

ID : 3

Format : AC-3

Format/Info : Audio Coding 3

Commercial name : Dolby Digital

Codec ID : A_AC3

Duration : 1 h 56 min

Bit rate mode : Constant

Bit rate : 448 kb/s

Channel(s) : 6 channels

Channel layout : L R C LFE Ls Rs

Sampling rate : 48.0 kHz

Frame rate : 31.250 FPS (1536 SPF)

Compression mode : Lossy

Stream size : 375 MiB (8%)

Title : DTS

Language : Spanish

Service kind : Complete Main

Default : No

Forced : No


Ballo Ballo-Explota Explota (Download Torrent Magnet

#Ballo #BalloExplota #Explota