Bad Samaritan 2018.1080p.WEB- Full Torrent Magnet Download

Download Torrent Bad Samaritan 2018.1080p.WEB- Movie Full in HD Result. Movie Bad Samaritan 2018.1080p.WEB- Torrent Download full. Movie Bad Samaritan 2018.1080p.WEB- torrent Magnet Download Full. Bad Samaritan 2018.1080p.WEB- Full Movie Torrent Download And Magnet Download For your PC And Mobiles. Latest Movie Bad Samaritan 2018.1080p.WEB- Download Link In Bottom.

Torrent And Magnet Links Below

Bad.Samaritan.2018.1080p.WEB-DL.HIN-ENG.AAC.2.0.H.264 – Sungeorge

Quote:

Bad.Samaritan.2018.1080p.WEB-DL.HIN-ENG.AAC.2.0.H.264 – Sungeorge




Code:

General

Complete name : Bad.Samaritan.2018.1080p.WEB-DL.HIN-ENG.AAC.2.0.H.264.mkv

Format : Matroska

Format version : Version 4

File size : 4.24 GiB

Duration : 1 h 50 min

Overall bit rate : 5 515 kb/s

Movie name : MovieAIO.club

Encoded date : UTC 2021-03-12 16:25:35

Writing application : mkvmerge v55.0.0 (‘Waiting For Space’) 64-bit

Writing library : libebml v1.4.2 + libmatroska v1.6.4

Video

ID : 1

Format : AVC

Format/Info : Advanced Video Codec

Format profile : [email protected]
Format settings : CABAC / 4 Ref Frames

Format settings, CABAC : Yes

Format settings, Reference frames : 4 frames

Codec ID : V_MPEG4/ISO/AVC

Duration : 1 h 50 min

Bit rate : 5 000 kb/s

Width : 1 920 pixels

Height : 1 080 pixels

Display aspect ratio : 16:9

Frame rate mode : Constant

Frame rate : 23.976 (24000/1001) FPS

Color space : YUV

Chroma subsampling : 4:2:0

Bit depth : 8 bits

Scan type : Progressive

Bits/(Pixel*Frame) : 0.101

Stream size : 3.85 GiB (91%)

Title : MovieAIO.club

Writing library : x264 core 161 r3048 b86ae3c

Encoding settings : cabac=1 / ref=2 / deblock=1:-1:-1 / analyse=0x1:0x111 / me=esa / subme=9 / psy=1 / psy_rd=1.00:0.15 / mixed_ref=1 / me_range=16 / chroma_me=1 / trellis=1 / 8x8dct=0 / cqm=0 / deadzone=21,11 / fast_pskip=1 / chroma_qp_offset=-3 / threads=18 / lookahead_threads=1 / sliced_threads=0 / nr=0 / decimate=1 / interlaced=0 / bluray_compat=0 / constrained_intra=0 / bframes=4 / b_pyramid=2 / b_adapt=1 / b_bias=0 / direct=1 / weightb=1 / open_gop=0 / weightp=2 / keyint=120 / keyint_min=61 / scenecut=0 / intra_refresh=0 / rc_lookahead=40 / rc=2pass / mbtree=1 / bitrate=5000 / ratetol=1.0 / qcomp=0.60 / qpmin=0 / qpmax=69 / qpstep=4 / cplxblur=20.0 / qblur=0.5 / ip_ratio=1.40 / aq=1:1.00

Default : Yes

Forced : No

Color range : Limited

Color primaries : BT.709

Transfer characteristics : BT.709

Matrix coefficients : BT.709

Audio #1

ID : 2

Format : AAC LC

Format/Info : Advanced Audio Codec Low Complexity

Codec ID : A_AAC-2

Duration : 1 h 50 min

Bit rate : 256 kb/s

Channel(s) : 2 channels

Channel layout : L R

Sampling rate : 48.0 kHz

Frame rate : 46.875 FPS (1024 SPF)

Compression mode : Lossy

Stream size : 202 MiB (5%)

Title : Hindi

Language : Hindi

Default : Yes

Forced : No

Audio #2

ID : 3

Format : AAC LC

Format/Info : Advanced Audio Codec Low Complexity

Codec ID : A_AAC-2

Duration : 1 h 50 min

Bit rate : 256 kb/s

Channel(s) : 2 channels

Channel layout : L R

Sampling rate : 48.0 kHz

Frame rate : 46.875 FPS (1024 SPF)

Compression mode : Lossy

Stream size : 202 MiB (5%)

Title : English

Language : English

Default : No

Forced : No

Text

ID : 4

Format : S_TEXT/WEBVTT

Codec ID : S_TEXT/WEBVTT

Duration : 1 h 45 min

Bit rate : 54 b/s

Count of elements : 1198

Stream size : 42.3 KiB (0%)

Title : English

Language : English

Default : Yes

Forced : No

Bad Samaritan 2018.1080p.WEB-Download Torrent Magnet

#Bad #Samaritan #20181080pWEB