Back to the Future (1985) 108 Full Torrent Magnet Download

Download Torrent Back to the Future (1985) 108 Movie Full in HD Result. Movie Back to the Future (1985) 108 Torrent Download full. Movie Back to the Future (1985) 108 torrent Magnet Download Full. Back to the Future (1985) 108 Full Movie Torrent Download And Magnet Download For your PC And Mobiles. Latest Movie Back to the Future (1985) 108 Download Link In Bottom.

Torrent And Magnet Links Below

The Back to the Future blu-ray has a very DNRed look where all the faces in the film look very waxy and lacking in fine detail. It also suffers from lots of edge enhancement that makes the overall image look very artificial and digital looking.

As the main source for this release I used a high quality DCP transfer that doesn’t suffer from DNR or edge enhancement so the film looks much more filmic and pleasant to watch.

Also included is the English PCM original surround mix from the Laserdisc.

All details of changes made to The Back to the Future (1985) blu-ray can be found in the torrent file listing.

English and Spanish subtitles are also included in this release.

Here are some screencap comparisons:

Blu-ray 1:

Regraded 1:

Blu-ray 2:

Regraded 2:

Blu-ray 3:

Regraded 3:

Video

ID : 1

Format : AVC

Format/Info : Advanced Video Codec

Format profile : [email protected]
Format settings, CABAC : Yes

Format settings, RefFrames : 4 frames

Codec ID : V_MPEG4/ISO/AVC

Duration : 1 h 56 min

Bit rate mode : Variable

Bit rate : 22.8 Mb/s

Maximum bit rate : 32.0 Mb/s

Width : 1 920 pixels

Height : 1 080 pixels

Audio #1

ID : 2

Format : DTS

Format/Info : Digital Theater Systems

Format profile : MA / Core

Mode : 16

Format settings, Endianness : Big

Codec ID : A_DTS

Duration : 1 h 56 min

Bit rate mode : Variable / Constant

Bit rate : 4 251 kb/s / 1 509 kb/s

Channel(s) : 6 channels

Channel positions : Front: L C R, Side: L R, LFE

Sampling rate : 48.0 kHz

Frame rate : 93.750 FPS (512 SPF)

Bit depth : 24 bits

Compression mode : Lossless / Lossy

Stream size : 3.45 GiB (15%)

Language : English

Default : Yes

Forced : No

Audio #2

ID : 3

Format : PCM

Codec ID : A_PCM/INT/LIT

Duration : 1 h 56 min

Bit rate mode : Constant

Bit rate : 1 536 kb/s

Channel(s) : 2 channels

Sampling rate : 48.0 kHz

Frame rate : 32.000 FPS (1500 SPF)

Bit depth : 16 bits

Stream size : 1.25 GiB (5%)

Language : English

Default : No

Forced : No

Back to the Future (1985) 108Download Torrent Magnet

#Future