Avatar 2009 Extended 1080p 10 Full Torrent Magnet Download

Download Torrent Avatar 2009 Extended 1080p 10 Movie Full in HD Result. Movie Avatar 2009 Extended 1080p 10 Torrent Download full. Movie Avatar 2009 Extended 1080p 10 torrent Magnet Download Full. Avatar 2009 Extended 1080p 10 Full Movie Torrent Download And Magnet Download For your PC And Mobiles. Latest Movie Avatar 2009 Extended 1080p 10 Download Link In Bottom.

Torrent And Magnet Links Below



General

Unique ID                                : 135603040220720095250424567033807546570 (0x66043210F2A418F65494549B0678A8CA)

Complete name                            : F:EncodeAvatar 2009 Extended 1080p 10bit BluRay Hindi English AAC 5.1 x265 HEVC – MoviePirate – Telly.mkv

Format                                   : Matroska

Format version                           : Version 4

File size                                : 3.64 GiB

Duration                                 : 2 h 58 min

Overall bit rate                         : 2 924 kb/s

Movie name                               : Avatar 2009 Extended 1080p 10bit BluRay Hindi English AAC 5.1 x265 HEVC – MoviePirate – Telly.mkv

Encoded date                             : UTC 2021-02-22 05:25:09

Writing application                      : mkvmerge v40.0.0 (‘Old Town Road + Pony’) 64-bit

Writing library                          : libebml v1.3.9 + libmatroska v1.5.2

Video

ID                                       : 1

Format                                   : HEVC

Format/Info                              : High Efficiency Video Coding

Format profile                           : Main [email protected]@Main

Codec ID                                 : V_MPEGH/ISO/HEVC

Duration                                 : 2 h 58 min

Bit rate                                 : 2 400 kb/s

Width                                    : 1 920 pixels

Height                                   : 1 072 pixels

Display aspect ratio                     : 16:9

Frame rate mode                          : Constant

Frame rate                               : 23.976 (24000/1001) FPS

Color space                              : YUV

Chroma subsampling                       : 4:2:0

Bit depth                                : 10 bits

Bits/(Pixel*Frame)                       : 0.049

Stream size                              : 2.99 GiB (82%)

Title                                    : MoviePirate – Telly

Writing library                          : x265 3.2+9-971180b100f8:[Windows][GCC 9.2.0][64 bit] 10bit

Encoding settings                        : cpuid=1111039 / frame-threads=2 / numa-pools=4 / wpp / no-pmode / no-pme / no-psnr / no-ssim / log-level=2 / input-csp=1 / input-res=1920×1072 / interlace=0 / total-frames=256291 / level-idc=0 / high-tier=1 / uhd-bd=0 / ref=2 / no-allow-non-conformance / no-repeat-headers / annexb / no-aud / no-hrd / info / hash=0 / no-temporal-layers / open-gop / min-keyint=23 / keyint=250 / gop-lookahead=0 / bframes=4 / b-adapt=0 / b-pyramid / bframe-bias=0 / rc-lookahead=15 / lookahead-slices=6 / scenecut=40 / radl=0 / no-splice / no-intra-refresh / ctu=64 / min-cu-size=8 / no-rect / no-amp / max-tu-size=32 / tu-inter-depth=1 / tu-intra-depth=1 / limit-tu=0 / rdoq-level=0 / dynamic-rd=0.00 / no-ssim-rd / signhide / no-tskip / nr-intra=0 / nr-inter=0 / no-constrained-intra / strong-intra-smoothing / max-merge=2 / limit-refs=3 / no-limit-modes / me=1 / subme=2 / merange=57 / temporal-mvp / no-frame-dup / no-hme / weightp / no-weightb / no-analyze-src-pics / deblock=0:0 / sao / no-sao-non-deblock / rd=2 / selective-sao=4 / early-skip / rskip / fast-intra / no-tskip-fast / no-cu-lossless / no-b-intra / no-splitrd-skip / rdpenalty=0 / psy-rd=2.00 / psy-rdoq=0.00 / no-rd-refine / no-lossless / cbqpoffs=0 / crqpoffs=0 / rc=abr / bitrate=2400 / qcomp=0.60 / qpstep=4 / stats-write=0 / stats-read=2 / cplxblur=20.0 / qblur=0.5 / ipratio=1.40 / pbratio=1.30 / aq-mode=2 / aq-strength=1.00 / cutree / zone-count=0 / no-strict-cbr / qg-size=32 / no-rc-grain / qpmax=69 / qpmin=0 / no-const-vbv / sar=0 / overscan=0 / videoformat=5 / range=0 / colorprim=2 / transfer=2 / colormatrix=2 / chromaloc=0 / display-window=0 / cll=0,0 / min-luma=0 / max-luma=1023 / log2-max-poc-lsb=8 / vui-timing-info / vui-hrd-info / slices=1 / no-opt-qp-pps / no-opt-ref-list-length-pps / no-multi-pass-opt-rps / scenecut-bias=0.05 / no-opt-cu-delta-qp / no-aq-motion / no-hdr / no-hdr-opt / no-dhdr10-opt / no-idr-recovery-sei / analysis-reuse-level=5 / scale-factor=0 / refine-intra=0 / refine-inter=0 / refine-mv=1 / refine-ctu-distortion=0 / no-limit-sao / ctu-info=0 / no-lowpass-dct / refine-analysis-type=0 / copy-pic=1 / max-ausize-factor=1.0 / no-dynamic-refine / no-single-sei / no-hevc-aq / no-svt / no-field / qp-adaptation-range=1.00

Default                                  : Yes

Forced                                   : No

Audio #1

ID                                       : 2

Format                                   : AAC LC SBR

Format/Info                              : Advanced Audio Codec Low Complexity with Spectral Band Replication

Commercial name                          : HE-AAC

Format settings                          : Explicit

Codec ID                                 : A_AAC-2

Duration                                 : 2 h 58 min

Bit rate                                 : 256 kb/s

Channel(s)                               : 6 channels

Channel layout                           : C L R Ls Rs LFE

Sampling rate                            : 48.0 kHz

Frame rate                               : 23.438 FPS (2048 SPF)

Compression mode                         : Lossy

Stream size                              : 326 MiB (9%)

Title                                    : MoviePirate – Telly

Language                                 : Hindi

Default                                  : No

Forced                                   : No

Audio #2

ID                                       : 3

Format                                   : AAC LC SBR

Format/Info                              : Advanced Audio Codec Low Complexity with Spectral Band Replication

Commercial name                          : HE-AAC

Format settings                          : Explicit

Codec ID                                 : A_AAC-2

Duration                                 : 2 h 58 min

Bit rate                                 : 256 kb/s

Channel(s)                               : 6 channels

Channel layout                           : C L R Ls Rs LFE

Sampling rate                            : 48.0 kHz

Frame rate                               : 23.438 FPS (2048 SPF)

Compression mode                         : Lossy

Stream size                              : 326 MiB (9%)

Title                                    : MoviePirate – Telly

Language                                 : English

Default                                  : No

Forced                                   : No

Text #1

ID                                       : 4

Format                                   : PGS

Muxing mode                              : zlib

Codec ID                                 : S_HDMV/PGS

Codec ID/Info                            : Picture based subtitle format used on BDs/HD-DVDs

Duration                                 : 2 h 57 min

Bit rate                                 : 24.7 kb/s

Count of elements                        : 2801

Stream size                              : 31.3 MiB (1%)

Title                                    : MoviePirate – Telly

Language                                 : English

Default                                  : No

Forced                                   : No

Text #2

ID                                       : 5

Format                                   : PGS

Muxing mode                              : zlib

Codec ID                                 : S_HDMV/PGS

Codec ID/Info                            : Picture based subtitle format used on BDs/HD-DVDs

Duration                                 : 2 h 43 min

Bit rate                                 : 1 527 b/s

Count of elements                        : 153

Stream size                              : 1.78 MiB (0%)

Title                                    : MoviePirate – Telly

Language                                 : English

Default                                  : No

Forced                                   : No

Menu

00:00:00.000                             : en:Chapter 01

00:05:25.575                             : en:Chapter 02

00:10:12.278                             : en:Chapter 03

00:10:24.457                             : en:Chapter 04

00:10:37.303                             : en:Chapter 05

00:11:47.915                             : en:Chapter 06

00:15:59.208                             : en:Chapter 07

00:17:54.782                             : en:Chapter 08

00:23:54.891                             : en:Chapter 09

00:27:54.547                             : en:Chapter 10

00:28:02.555                             : en:Chapter 11

00:28:45.223                             : en:Chapter 12

00:30:14.020                             : en:Chapter 13

00:30:27.617                             : en:Chapter 14

00:32:04.464                             : en:Chapter 15

00:32:27.904                             : en:Chapter 16

00:37:16.525                             : en:Chapter 17

00:39:08.054                             : en:Chapter 18

00:41:18.476                             : en:Chapter 19

00:47:43.318                             : en:Chapter 20

00:48:09.177                             : en:Chapter 21

00:49:16.912                             : en:Chapter 22

00:53:05.015                             : en:Chapter 23

00:54:22.008                             : en:Chapter 24

00:55:42.213                             : en:Chapter 25

00:57:44.043                             : en:Chapter 26

00:58:32.050                             : en:Chapter 27

01:01:09.415                             : en:Chapter 28

01:03:09.619                             : en:Chapter 29

01:03:57.208                             : en:Chapter 30

01:07:03.227                             : en:Chapter 31

01:09:40.634                             : en:Chapter 32

01:11:50.222                             : en:Chapter 33

01:15:18.889                             : en:Chapter 34

01:15:53.799                             : en:Chapter 35

01:17:32.230                             : en:Chapter 36

01:18:07.891                             : en:Chapter 37

01:22:38.119                             : en:Chapter 38

01:25:59.487                             : en:Chapter 39

01:26:12.709                             : en:Chapter 40

01:27:42.298                             : en:Chapter 41

01:27:54.435                             : en:Chapter 42

01:33:00.408                             : en:Chapter 43

01:36:03.424                             : en:Chapter 44

01:37:36.642                             : en:Chapter 45

01:37:36.892                             : en:Chapter 46

01:44:15.290                             : en:Chapter 47

01:46:49.236                             : en:Chapter 48

01:48:14.029                             : en:Chapter 49

01:48:58.198                             : en:Chapter 50

01:50:02.596                             : en:Chapter 51

01:51:53.581                             : en:Chapter 52

01:58:30.895                             : en:Chapter 53

02:02:13.284                             : en:Chapter 54

02:07:51.664                             : en:Chapter 55

02:09:30.554                             : en:Chapter 56

02:12:36.615                             : en:Chapter 57

02:16:03.363                             : en:Chapter 58

02:19:31.654                             : en:Chapter 59

02:23:59.631                             : en:Chapter 60

02:30:05.079                             : en:Chapter 61

02:32:13.290                             : en:Chapter 62

02:32:59.211                             : en:Chapter 63

02:33:56.852                             : en:Chapter 64

02:34:52.908                             : en:Chapter 65

02:40:02.259                             : en:Chapter 66

02:40:45.886                             : en:Chapter 67

02:41:03.987                             : en:Chapter 68

02:45:33.214                             : en:Chapter 69

02:46:30.814                             : en:Chapter 70

02:46:48.498                             : en:Chapter 71

02:48:56.793                             : en:Chapter 72

02:49:11.724                             : en:Chapter 73

02:51:32.073                             : en:Chapter 74

02:58:08.469                             : en:Chapter 75












Avatar 2009 Extended 1080p 10Download Torrent Magnet

#Avatar #Extended #1080p