aTypical.Wednesday.2020.1080p Full Torrent Magnet Download

Download Torrent aTypical.Wednesday.2020.1080p Movie Full in HD Result. Movie aTypical.Wednesday.2020.1080p Torrent Download full. Movie aTypical.Wednesday.2020.1080p torrent Magnet Download Full. aTypical.Wednesday.2020.1080p Full Movie Torrent Download And Magnet Download For your PC And Mobiles. Latest Movie aTypical.Wednesday.2020.1080p Download Link In Bottom.

Torrent And Magnet Links Below

https://www.imdb.com/title/tt9324808/

Quote:

Video

ID : 1

Format : AVC

Format/Info : Advanced Video Codec

Format profile : [email protected]
Format settings : CABAC / 4 Ref Frames

Format settings, CABAC : Yes

Format settings, Reference frames : 4 frames

Codec ID : V_MPEG4/ISO/AVC

Duration : 1 h 31 min

Bit rate : 10.6 Mb/s

Width : 1 920 pixels

Height : 1 080 pixels

Display aspect ratio : 16:9

Frame rate mode : Constant

Frame rate : 23.976 (24000/1001) FPS

Color space : YUV

Chroma subsampling : 4:2:0

Bit depth : 8 bits

Scan type : Progressive

Bits/(Pixel*Frame) : 0.212

Stream size : 6.71 GiB (92%)

Default : Yes

Forced : No

Color range : Limited

Color primaries : BT.709

Transfer characteristics : BT.709

Matrix coefficients : BT.709

Audio

ID : 2

Format : E-AC-3

Format/Info : Enhanced AC-3

Commercial name : Dolby Digital Plus

Codec ID : A_EAC3

Duration : 1 h 31 min

Bit rate mode : Constant

Bit rate : 640 kb/s

Channel(s) : 6 channels

Channel layout : L R C LFE Ls Rs

Sampling rate : 48.0 kHz

Frame rate : 31.250 FPS (1536 SPF)

Compression mode : Lossy

Delay relative to video : 22 ms

Stream size : 417 MiB (6%)

Language : English

Service kind : Complete Main

Default : Yes

Forced : No

Text

ID : 3

Format : UTF-8

Codec ID : S_TEXT/UTF8

Codec ID/Info : UTF-8 Plain Text

Title : English

Language : English

Default : No

Forced : No

aTypical.Wednesday.2020.1080pDownload Torrent Magnet

#aTypicalWednesday20201080p