Atlantis – The Lost Empire 20 Full Torrent Magnet Download

Download Torrent Atlantis – The Lost Empire 20 Movie Full in HD Result. Movie Atlantis – The Lost Empire 20 Torrent Download full. Movie Atlantis – The Lost Empire 20 torrent Magnet Download Full. Atlantis – The Lost Empire 20 Full Movie Torrent Download And Magnet Download For your PC And Mobiles. Latest Movie Atlantis – The Lost Empire 20 Download Link In Bottom.

Torrent And Magnet Links Below

Greets

Admin , Moderator , Noir, Ex0duS5150, theeshiznit, MisterQ, UserHEVC, miok, Silmarillion, Mr. Blue, MaDHeX and many more ;

Join Us On TeleGram

https://t.me/gopisahit

https://orangepix.is/images/2021/05/24/c25f908085ca0eb94aa23ddda4784252.md.jpg

Atlantis – The Lost Empire 2001 x264 720p Esub BluRay English Hindi Telugu Tamil THE GOPI SAHI

Format : Matroska

Format version : Version 4

File size : 841 MiB

Duration : 1 h 31 min

Overall bit rate : 1 289 kb/s

Movie name : Atlantis – The Lost Empire 2001 GOPI SAHI

Encoded date : UTC 2021-05-24 05:03:22

Video

ID : 1

Format : AVC

Format/Info : Advanced Video Codec

Format profile : [email protected]
Format settings : CABAC / 5 Ref Frames

Format settings, CABAC : Yes

Format settings, Reference fra : 5 frames

Codec ID : V_MPEG4/ISO/AVC

Duration : 1 h 31 min

Bit rate : 899 kb/s

Width : 1 280 pixels

Height : 722 pixels

Display aspect ratio : 16:9

Frame rate mode : Constant

Frame rate : 25.000 FPS

Color space : YUV

Chroma subsampling : 4:2:0

Bit depth : 8 bits

Scan type : Progressive

Bits/(Pixel*Frame) : 0.039

Stream size : 586 MiB (70%)

Title : GOPI SAHI

Writing library : x264 core 157 r2935 545de2f

Audio #1

ID : 2

Format : AAC LC

Format/Info : Advanced Audio Codec Low Complexity

Codec ID : A_AAC-2

Duration : 1 h 31 min

Bit rate : 96.0 kb/s

Channel(s) : 2 channels

Channel layout : L R

Sampling rate : 48.0 kHz

Frame rate : 46.875 FPS (1024 SPF)

Compression mode : Lossy

Delay relative to video : -21 ms

Stream size : 62.9 MiB (7%)

Title : GOPI SAHI

Language : Hindi

Default : Yes

Forced : No

Audio #2

ID : 3

Format : AAC LC

Format/Info : Advanced Audio Codec Low Complexity

Codec ID : A_AAC-2

Duration : 1 h 31 min

Bit rate : 96.0 kb/s

Channel(s) : 2 channels

Channel layout : L R

Sampling rate : 48.0 kHz

Frame rate : 46.875 FPS (1024 SPF)

Compression mode : Lossy

Delay relative to video : -21 ms

Stream size : 62.8 MiB (7%)

Title : GOPI SAHI

Language : English

Default : No

Forced : No

Audio #3

ID : 4

Format : AAC LC

Format/Info : Advanced Audio Codec Low Complexity

Codec ID : A_AAC-2

Duration : 1 h 31 min

Bit rate : 96.0 kb/s

Channel(s) : 2 channels

Channel layout : L R

Sampling rate : 48.0 kHz

Frame rate : 46.875 FPS (1024 SPF)

Compression mode : Lossy

Delay relative to video : -21 ms

Stream size : 62.8 MiB (7%)

Title : GOPI SAHI

Language : Tamil

Default : No

Forced : No

Audio #4

ID : 5

Format : AAC LC

Format/Info : Advanced Audio Codec Low Complexity

Codec ID : A_AAC-2

Duration : 1 h 31 min

Bit rate : 96.0 kb/s

Channel(s) : 2 channels

Channel layout : L R

Sampling rate : 48.0 kHz

Frame rate : 46.875 FPS (1024 SPF)

Compression mode : Lossy

Delay relative to video : -21 ms

Stream size : 62.8 MiB (7%)

Title : GOPI SAHI

Language : Telugu

Default : No

Forced : No

Atlantis – The Lost Empire 20Download Torrent Magnet

#Atlantis #Lost #Empire