Astérix les 12 travaux d’aste Full Torrent Magnet Download

Download Torrent Astérix les 12 travaux d’aste Movie Full in HD Result. Movie Astérix les 12 travaux d’aste Torrent Download full. Movie Astérix les 12 travaux d’aste torrent Magnet Download Full. Astérix les 12 travaux d’aste Full Movie Torrent Download And Magnet Download For your PC And Mobiles. Latest Movie Astérix les 12 travaux d’aste Download Link In Bottom.

Torrent And Magnet Links Below

IMDB

Code:


General

Complete name : Astérix.les.12.travaux.d’asterix.(1976).Blu-ray.1080p.DTS.[Borsalino].DE.srt

Format : SubRip

File size : 63.9 KiB

Text

Format : SubRip

Compression mode : Lossless

General

Complete name : Astérix.les.12.travaux.d’asterix.(1976).Blu-ray.1080p.DTS.[Borsalino].EL.srt

Format : SubRip

File size : 53.5 KiB

Text

Format : SubRip

Compression mode : Lossless

General

Complete name : Astérix.les.12.travaux.d’asterix.(1976).Blu-ray.1080p.DTS.[Borsalino].EN.srt

Format : SubRip

File size : 64.2 KiB

Text

Format : SubRip

Compression mode : Lossless

General

Complete name : Astérix.les.12.travaux.d’asterix.(1976).Blu-ray.1080p.DTS.[Borsalino].ES.srt

Format : SubRip

File size : 66.6 KiB

Text

Format : SubRip

Compression mode : Lossless

General

Complete name : Astérix.les.12.travaux.d’asterix.(1976).Blu-ray.1080p.DTS.[Borsalino].FR.srt

Format : SubRip

File size : 66.7 KiB

Text

Format : SubRip

Compression mode : Lossless

General

Complete name : Astérix.les.12.travaux.d’asterix.(1976).Blu-ray.1080p.DTS.[Borsalino].NL.srt

Format : SubRip

File size : 60.8 KiB

Text

Format : SubRip

Compression mode : Lossless

General

Complete name : Astérix.les.12.travaux.d’asterix.(1976).Blu-ray.1080p.DTS.[Borsalino].PT.srt

Format : SubRip

File size : 63.2 KiB

Text

Format : SubRip

Compression mode : Lossless

General

Complete name : Astérix.les.12.travaux.d’asterix.(1976).Blu-ray.1080p.DTS.[Borsalino].RO.srt

Format : SubRip

File size : 56.6 KiB

Text

Format : SubRip

Compression mode : Lossless

General

Complete name : Astérix.les.12.travaux.d’asterix.(1976).Blu-ray.1080p.DTS.[Borsalino].RU.srt

Format : SubRip

File size : 85.7 KiB

Text

Format : SubRip

Compression mode : Lossless

General

Complete name : Astérix.les.12.travaux.d’asterix.(1976).Blu-ray.1080p.DTS.[Borsalino].mkv

Format : Matroska

Format version : Version 4

File size : 4.41 GiB

Duration : 1 h 19 min

Overall bit rate mode : Variable

Overall bit rate : 7 986 kb/s

Movie name : Astérix.les.12.travaux.d’asterix.(1976).Blu-ray.1080p.DTS.[Borsalino]
Writing application : mkvmerge v56.1.0 (‘My Friend’) 64-bit

Writing library : libebml v1.4.2 + libmatroska v1.6.4

Video

ID : 1

Format : HEVC

Format/Info : High Efficiency Video Coding

Format profile : Main [email protected]@High
Codec ID : V_MPEGH/ISO/HEVC

Duration : 1 h 19 min

Bit rate : 7 093 kb/s

Width : 1 760 pixels

Height : 1 080 pixels

Display aspect ratio : 16:10

Frame rate mode : Constant

Frame rate : 23.976 (24000/1001) FPS

Color space : YUV

Chroma subsampling : 4:2:0

Bit depth : 10 bits

Bits/(Pixel*Frame) : 0.156

Stream size : 3.92 GiB (89%)

Title : French

Language : French

Default : Yes

Forced : No

Color range : Limited

Color primaries : BT.709

Transfer characteristics : BT.709

Matrix coefficients : BT.709

Audio

ID : 2

Format : DTS XLL

Format/Info : Digital Theater Systems

Commercial name : DTS-HD Master Audio

Codec ID : A_DTS

Duration : 1 h 19 min

Bit rate mode : Variable

Bit rate : 890 kb/s

Channel(s) : 2 channels

Channel layout : L R

Sampling rate : 48.0 kHz

Frame rate : 93.750 FPS (512 SPF)

Bit depth : 16 bits

Compression mode : Lossless

Stream size : 503 MiB (11%)

Title : French

Language : French

Default : Yes

Forced : No

Spoken language

Subtitles (srt files)


















Astérix les 12 travaux d’asteDownload Torrent Magnet

#Astérix #les #travaux #daste