Astérix et la Surprise de Cés Full Torrent Magnet Download

Download Torrent Astérix et la Surprise de Cés Movie Full in HD Result. Movie Astérix et la Surprise de Cés Torrent Download full. Movie Astérix et la Surprise de Cés torrent Magnet Download Full. Astérix et la Surprise de Cés Full Movie Torrent Download And Magnet Download For your PC And Mobiles. Latest Movie Astérix et la Surprise de Cés Download Link In Bottom.

Torrent And Magnet Links Below

IMDB

Code:


General

Complete name : Astérix.et.la.Surprise.de.César.(1985).Blu-ray.1080p.DTS.[Borsalino].DE.srt

Format : SubRip

File size : 50.4 KiB

Text

Format : SubRip

Compression mode : Lossless

General

Complete name : Astérix.et.la.Surprise.de.César.(1985).Blu-ray.1080p.DTS.[Borsalino].EL.srt

Format : SubRip

File size : 41.9 KiB

Text

Format : SubRip

Compression mode : Lossless

General

Complete name : Astérix.et.la.Surprise.de.César.(1985).Blu-ray.1080p.DTS.[Borsalino].EN.srt

Format : SubRip

File size : 61.9 KiB

Text

Format : SubRip

Compression mode : Lossless

General

Complete name : Astérix.et.la.Surprise.de.César.(1985).Blu-ray.1080p.DTS.[Borsalino].NL.srt

Format : SubRip

File size : 64.8 KiB

Text

Format : SubRip

Compression mode : Lossless

General

Complete name : Astérix.et.la.Surprise.de.César.(1985).Blu-ray.1080p.DTS.[Borsalino].RO.srt

Format : SubRip

File size : 50.5 KiB

Text

Format : SubRip

Compression mode : Lossless

General

Complete name : Astérix.et.la.Surprise.de.César.(1985).Blu-ray.1080p.DTS.[Borsalino].RU.srt

Format : SubRip

File size : 52.5 KiB

Text

Format : SubRip

Compression mode : Lossless

General

Complete name : Astérix.et.la.Surprise.de.César.(1985).Blu-ray.1080p.DTS.[Borsalino].mkv

Format : Matroska

Format version : Version 4

File size : 4.21 GiB

Duration : 1 h 16 min

Overall bit rate mode : Variable

Overall bit rate : 7 869 kb/s

Movie name : Astérix.et.la.Surprise.de.César.(1985).Blu-ray.1080p.DTS.[Borsalino]
Writing application : mkvmerge v56.1.0 (‘My Friend’) 64-bit

Writing library : libebml v1.4.2 + libmatroska v1.6.4

Video

ID : 1

Format : HEVC

Format/Info : High Efficiency Video Coding

Format profile : Main [email protected]@High

Codec ID : V_MPEGH/ISO/HEVC

Duration : 1 h 16 min

Bit rate : 6 877 kb/s

Width : 1 800 pixels

Height : 1 080 pixels

Display aspect ratio : 5:3

Frame rate mode : Constant

Frame rate : 23.976 (24000/1001) FPS

Color space : YUV

Chroma subsampling : 4:2:0

Bit depth : 10 bits

Bits/(Pixel*Frame) : 0.148

Stream size : 3.68 GiB (87%)

Title : French

Language : French

Default : Yes

Forced : No

Color range : Limited

Color primaries : BT.709

Transfer characteristics : BT.709

Matrix coefficients : BT.709

Audio

ID : 2

Format : DTS XLL

Format/Info : Digital Theater Systems

Commercial name : DTS-HD Master Audio

Codec ID : A_DTS

Duration : 1 h 16 min

Bit rate mode : Variable

Bit rate : 988 kb/s

Channel(s) : 2 channels

Channel layout : L R

Sampling rate : 48.0 kHz

Frame rate : 93.750 FPS (512 SPF)

Bit depth : 16 bits

Compression mode : Lossless

Stream size : 541 MiB (13%)

Title : French

Language : French

Default : Yes

Forced : No

Spoken language

Subtitles (srt files)













Astérix et la Surprise de CésDownload Torrent Magnet

#Astérix #Surprise #Cés