Astérix et Cleopatre (1968) B Full Torrent Magnet Download

Download Torrent Astérix et Cleopatre (1968) B Movie Full in HD Result. Movie Astérix et Cleopatre (1968) B Torrent Download full. Movie Astérix et Cleopatre (1968) B torrent Magnet Download Full. Astérix et Cleopatre (1968) B Full Movie Torrent Download And Magnet Download For your PC And Mobiles. Latest Movie Astérix et Cleopatre (1968) B Download Link In Bottom.

Torrent And Magnet Links Below

IMDB

Code:


General

Complete name : Astérix.et.Cleopatre.(1968).Blu-ray.1080p.DTS.[Borsalino].EL.srt

Format : SubRip

File size : 42.4 KiB

Text

Format : SubRip

Compression mode : Lossless

General

Complete name : Astérix.et.Cleopatre.(1968).Blu-ray.1080p.DTS.[Borsalino].EN.srt

Format : SubRip

File size : 56.0 KiB

Text

Format : SubRip

Compression mode : Lossless

General

Complete name : Astérix.et.Cleopatre.(1968).Blu-ray.1080p.DTS.[Borsalino].FR.srt

Format : SubRip

File size : 54.0 KiB

Text

Format : SubRip

Compression mode : Lossless

General

Complete name : Astérix.et.Cleopatre.(1968).Blu-ray.1080p.DTS.[Borsalino].NL.srt

Format : SubRip

File size : 41.1 KiB

Text

Format : SubRip

Compression mode : Lossless

General

Complete name : Astérix.et.Cleopatre.(1968).Blu-ray.1080p.DTS.[Borsalino].mkv

Format : Matroska

Format version : Version 4

File size : 4.04 GiB

Duration : 1 h 12 min

Overall bit rate mode : Variable

Overall bit rate : 7 996 kb/s

Movie name : Astérix.et.Cleopatre.(1968).Blu-ray.1080p.DTS.[Borsalino]
Writing application : mkvmerge v56.1.0 (‘My Friend’) 64-bit

Writing library : libebml v1.4.2 + libmatroska v1.6.4

Video

ID : 1

Format : HEVC

Format/Info : High Efficiency Video Coding

Format profile : Main [email protected]@High

Codec ID : V_MPEGH/ISO/HEVC

Duration : 1 h 12 min

Bit rate : 6 984 kb/s

Width : 1 496 pixels

Height : 1 080 pixels

Display aspect ratio : 1.385

Frame rate mode : Constant

Frame rate : 23.976 (24000/1001) FPS

Color space : YUV

Chroma subsampling : 4:2:0

Bit depth : 10 bits

Bits/(Pixel*Frame) : 0.180

Stream size : 3.53 GiB (87%)

Title : French

Language : French

Default : Yes

Forced : No

Color range : Limited

Color primaries : BT.709

Transfer characteristics : BT.709

Matrix coefficients : BT.709

Audio

ID : 2

Format : DTS XLL

Format/Info : Digital Theater Systems

Commercial name : DTS-HD Master Audio

Codec ID : A_DTS

Duration : 1 h 12 min

Bit rate mode : Variable

Bit rate : 1 008 kb/s

Channel(s) : 2 channels

Channel layout : L R

Sampling rate : 48.0 kHz

Frame rate : 93.750 FPS (512 SPF)

Bit depth : 16 bits

Compression mode : Lossless

Stream size : 522 MiB (13%)

Title : French

Language : French

Default : Yes

Forced : No

Spoken language

Subtitles (srt files)










Astérix et Cleopatre (1968) BDownload Torrent Magnet

#Astérix #Cleopatre