Astérix chez les Bretons (198 Full Torrent Magnet Download

Download Torrent Astérix chez les Bretons (198 Movie Full in HD Result. Movie Astérix chez les Bretons (198 Torrent Download full. Movie Astérix chez les Bretons (198 torrent Magnet Download Full. Astérix chez les Bretons (198 Full Movie Torrent Download And Magnet Download For your PC And Mobiles. Latest Movie Astérix chez les Bretons (198 Download Link In Bottom.

Torrent And Magnet Links Below

IMDB

Code:


General

Complete name : Astérix.chez.les.Bretons.(1986).Blu-ray.1080p.DTS.[Borsalino].DE.srt

Format : SubRip

File size : 55.2 KiB

Text

Format : SubRip

Compression mode : Lossless

General

Complete name : Astérix.chez.les.Bretons.(1986).Blu-ray.1080p.DTS.[Borsalino].EL.srt

Format : SubRip

File size : 50.1 KiB

Text

Format : SubRip

Compression mode : Lossless

General

Complete name : Astérix.chez.les.Bretons.(1986).Blu-ray.1080p.DTS.[Borsalino].EN.srt

Format : SubRip

File size : 62.5 KiB

Text

Format : SubRip

Compression mode : Lossless

General

Complete name : Astérix.chez.les.Bretons.(1986).Blu-ray.1080p.DTS.[Borsalino].ES.srt

Format : SubRip

File size : 52.5 KiB

Text

Format : SubRip

Compression mode : Lossless

General

Complete name : Astérix.chez.les.Bretons.(1986).Blu-ray.1080p.DTS.[Borsalino].FR.srt

Format : SubRip

File size : 63.4 KiB

Text

Format : SubRip

Compression mode : Lossless

General

Complete name : Astérix.chez.les.Bretons.(1986).Blu-ray.1080p.DTS.[Borsalino].IT.srt

Format : SubRip

File size : 55.7 KiB

Text

Format : SubRip

Compression mode : Lossless

General

Complete name : Astérix.chez.les.Bretons.(1986).Blu-ray.1080p.DTS.[Borsalino].NL.srt

Format : SubRip

File size : 58.4 KiB

Text

Format : SubRip

Compression mode : Lossless

General

Complete name : Astérix.chez.les.Bretons.(1986).Blu-ray.1080p.DTS.[Borsalino].mkv

Format : Matroska

Format version : Version 4

File size : 4.30 GiB

Duration : 1 h 18 min

Overall bit rate mode : Variable

Overall bit rate : 7 829 kb/s

Movie name : Astérix.chez.les.Bretons.(1986).Blu-ray.1080p.DTS.[Borsalino]
Writing application : mkvmerge v56.1.0 (‘My Friend’) 64-bit

Writing library : libebml v1.4.2 + libmatroska v1.6.4

Video

ID : 1

Format : HEVC

Format/Info : High Efficiency Video Coding

Format profile : Main [email protected]@High

Codec ID : V_MPEGH/ISO/HEVC

Duration : 1 h 18 min

Bit rate : 6 893 kb/s

Width : 1 800 pixels

Height : 1 080 pixels

Display aspect ratio : 5:3

Frame rate mode : Constant

Frame rate : 23.976 (24000/1001) FPS

Color space : YUV

Chroma subsampling : 4:2:0

Bit depth : 10 bits

Bits/(Pixel*Frame) : 0.148

Stream size : 3.79 GiB (88%)

Title : French

Language : French

Default : Yes

Forced : No

Color range : Limited

Color primaries : BT.709

Transfer characteristics : BT.709

Matrix coefficients : BT.709

Audio

ID : 2

Format : DTS XLL

Format/Info : Digital Theater Systems

Commercial name : DTS-HD Master Audio

Codec ID : A_DTS

Duration : 1 h 18 min

Bit rate mode : Variable

Bit rate : 932 kb/s

Channel(s) : 2 channels

Channel layout : L R

Sampling rate : 48.0 kHz

Frame rate : 93.750 FPS (512 SPF)

Bit depth : 16 bits

Compression mode : Lossless

Stream size : 525 MiB (12%)

Title : French

Language : French

Default : No

Forced : No

Spoken language

Subtitles (srt files)

















Astérix chez les Bretons (198Download Torrent Magnet

#Astérix #chez #les #Bretons