Army.of.the.Dead.2021.HDRip.X Full Torrent Magnet Download

Download Torrent Army.of.the.Dead.2021.HDRip.X Movie Full in HD Result. Movie Army.of.the.Dead.2021.HDRip.X Torrent Download full. Movie Army.of.the.Dead.2021.HDRip.X torrent Magnet Download Full. Army.of.the.Dead.2021.HDRip.X Full Movie Torrent Download And Magnet Download For your PC And Mobiles. Latest Movie Army.of.the.Dead.2021.HDRip.X Download Link In Bottom.

Torrent And Magnet Links Below

Army.of.the.Dead.2021.HDRip.XviD.B4ND1T69

Director: Zack Snyder

Writers: Zack Snyder (story by), Zack Snyder (screenplay by)

Stars: Dave Bautista, Ella Purnell, Ana de la Reguera

Plot/Story:

Following a zombie outbreak in Las Vegas, a group of mercenaries take the ultimate gamble, venturing into the quarantine zone to pull off the greatest heist ever attempted.

General

Complete name : Army.of.the.Dead.2021.HDRip.XviD.B4ND1T69.avi

Format : AVI

Format/Info : Audio Video Interleave

File size : 1.20 GiB

Duration : 2 h 28 min

Overall bit rate : 1 160 kb/s

Subtitles : Yes…Hardcoded for non-English parts + file included(HI)

Video

ID : 0

Format : MPEG-4 Visual

Format profile : Advanced [email protected]
Format settings, BVOP : 2

Format settings, QPel : No

Format settings, GMC : No warppoints

Format settings, Matrix : Default (H.263)

Codec ID : XVID

Codec ID/Hint : XviD

Duration : 2 h 28 min

Bit rate : 1 019 kb/s

Width : 720 pixels

Height : 400 pixels

Display aspect ratio : 16:9

Frame rate : 24.000 FPS

Color space : YUV

Chroma subsampling : 4:2:0

Bit depth : 8 bits

Scan type : Progressive

Compression mode : Lossy

Bits/(Pixel*Frame) : 0.147

Stream size : 1.06 GiB (88%)

Writing library : XviD 64

Audio

ID : 1

Format : MPEG Audio

Format version : Version 1

Format profile : Layer 3

Codec ID : 55

Codec ID/Hint : MP3

Duration : 2 h 28 min

Bit rate mode : Constant

Bit rate : 128 kb/s

Channel(s) : 2 channels

Sampling rate : 48.0 kHz

Compression mode : Lossy

Stream size : 136 MiB (11%)

Alignment : Aligned on interleaves

Interleave, duration : 24 ms (0.58 video frame)

Screenshots:









Please Seed For As Long As Possible

Or At Least 1:1 Ratio…Thanks

Enjoy Peeps

Army.of.the.Dead.2021.HDRip.XDownload Torrent Magnet

#ArmyoftheDead2021HDRipX