Army.of.the.Dead.2021.2160p.N Full Torrent Magnet Download

Download Torrent Army.of.the.Dead.2021.2160p.N Movie Full in HD Result. Movie Army.of.the.Dead.2021.2160p.N Torrent Download full. Movie Army.of.the.Dead.2021.2160p.N torrent Magnet Download Full. Army.of.the.Dead.2021.2160p.N Full Movie Torrent Download And Magnet Download For your PC And Mobiles. Latest Movie Army.of.the.Dead.2021.2160p.N Download Link In Bottom.

Torrent And Magnet Links Below

Code:

Video

ID : 1

Format : HEVC

Format/Info : High Efficiency Video Coding

Format profile : Main [email protected]@High

HDR format : SMPTE ST 2086, HDR10 compatible

Codec ID : V_MPEGH/ISO/HEVC

Duration : 2 h 26 min

Bit rate : 17.2 Mb/s

Width : 3 840 pixels

Height : 2 160 pixels

Display aspect ratio : 16:9

Frame rate mode : Constant

Frame rate : 24.000 FPS

Color space : YUV

Chroma subsampling : 4:2:0

Bit depth : 10 bits

Bits/(Pixel*Frame) : 0.086

Stream size : 17.6 GiB (96%)

Writing library : x265 3.5+9-bf91444e0:[Windows][MSVC 1928][64 bit] 10bit

Encoding settings : cpuid=1111039 / frame-threads=4 / numa-pools=28 / wpp / no-pmode / no-pme / no-psnr / no-ssim / log-level=2 / input-csp=1 / input-res=3840×2160 / interlace=0 / total-frames=0 / level-idc=51 / high-tier=1 / uhd-bd=0 / ref=5 / no-allow-non-conformance / repeat-headers / annexb / aud / no-eob / no-eos / hrd / info / hash=0 / no-temporal-layers / open-gop / min-keyint=24 / keyint=250 / gop-lookahead=0 / bframes=8 / b-adapt=2 / b-pyramid / bframe-bias=0 / rc-lookahead=40 / lookahead-slices=8 / scenecut=40 / hist-scenecut=0 / radl=0 / no-splice / no-intra-refresh / ctu=64 / min-cu-size=8 / no-rect / no-amp / max-tu-size=32 / tu-inter-depth=3 / tu-intra-depth=4 / limit-tu=0 / rdoq-level=0 / dynamic-rd=0.00 / no-ssim-rd / signhide / no-tskip / nr-intra=0 / nr-inter=0 / no-constrained-intra / strong-intra-smoothing / max-merge=5 / limit-refs=0 / no-limit-modes / me=1 / subme=5 / merange=57 / temporal-mvp / no-frame-dup / no-hme / weightp / weightb / no-analyze-src-pics / deblock=-3:-3 / no-sao / no-sao-non-deblock / rd=4 / selective-sao=0 / early-skip / rskip / no-fast-intra / no-tskip-fast / no-cu-lossless / b-intra / no-splitrd-skip / rdpenalty=0 / psy-rd=2.00 / psy-rdoq=0.00 / no-rd-refine / no-lossless / cbqpoffs=0 / crqpoffs=0 / rc=crf / crf=17.0 / qcomp=0.60 / qpstep=4 / stats-write=0 / stats-read=0 / vbv-maxrate=160000 / vbv-bufsize=160000 / vbv-init=0.9 / min-vbv-fullness=50.0 / max-vbv-fullness=80.0 / crf-max=0.0 / crf-min=0.0 / ipratio=1.30 / pbratio=1.20 / aq-mode=3 / aq-strength=0.80 / no-cutree / zone-count=0 / no-strict-cbr / qg-size=32 / no-rc-grain / qpmax=69 / qpmin=0 / no-const-vbv / sar=1 / overscan=0 / videoformat=5 / range=0 / colorprim=9 / transfer=16 / colormatrix=9 / chromaloc=0 / display-window=0 / master-display=G(13250,34500)B(7500,3000)R(34000,16000)WP(15635,16450)L(10000000,1) / cll=2473,596 / min-luma=0 / max-luma=1023 / log2-max-poc-lsb=8 / vui-timing-info / vui-hrd-info / slices=1 / no-opt-qp-pps / no-opt-ref-list-length-pps / no-multi-pass-opt-rps / scenecut-bias=0.05 / hist-threshold=0.03 / no-opt-cu-delta-qp / no-aq-motion / hdr10 / hdr10-opt / no-dhdr10-opt / no-idr-recovery-sei / analysis-reuse-level=0 / analysis-save-reuse-level=0 / analysis-load-reuse-level=0 / scale-factor=0 / refine-intra=0 / refine-inter=0 / refine-mv=1 / refine-ctu-distortion=0 / no-limit-sao / ctu-info=0 / no-lowpass-dct / refine-analysis-type=0 / copy-pic=1 / max-ausize-factor=1.0 / no-dynamic-refine / no-single-sei / no-hevc-aq / no-svt / no-field / qp-adaptation-range=1.00 / scenecut-aware-qp=0conformance-window-offsets / right=0 / bottom=0 / decoder-max-rate=0 / no-vbv-live-multi-pass

Default : Yes

Forced : No

Color range : Limited

Color primaries : BT.2020

Transfer characteristics : PQ

Matrix coefficients : BT.2020 non-constant

Mastering display color primaries : Display P3

Mastering display luminance : min: 0.0001 cd/m2, max: 1000 cd/m2

Maximum Content Light Level : 2473 cd/m2

Maximum Frame-Average Light Level : 596 cd/m2

Audio

ID : 2

Format : E-AC-3 JOC

Format/Info : Enhanced AC-3 with Joint Object Coding

Commercial name : Dolby Digital Plus with Dolby Atmos

Codec ID : A_EAC3

Duration : 2 h 28 min

Bit rate mode : Constant

Bit rate : 768 kb/s

Channel(s) : 6 channels

Channel layout : L R C LFE Ls Rs

Sampling rate : 48.0 kHz

Frame rate : 31.250 FPS (1536 SPF)

Compression mode : Lossy

Stream size : 815 MiB (4%)

Title : English

Language : English

Service kind : Complete Main

Default : No

Forced : No

Complexity index : 16

Number of dynamic objects : 15

Bed channel count : 1 channel

Bed channel configuration : LFE

Text #1

ID : 3

Format : UTF-8

Codec ID : S_TEXT/UTF8

Codec ID/Info : UTF-8 Plain Text

Duration : 2 h 23 min

Bit rate : 55 b/s

Count of elements : 1992

Stream size : 59.0 KiB (0%)

Title : English [CC]
Language : English

Default : No

Forced : No

Text #2

ID : 4

Format : UTF-8

Codec ID : S_TEXT/UTF8

Codec ID/Info : UTF-8 Plain Text

Duration : 2 h 26 min

Bit rate : 36 b/s

Count of elements : 1381

Stream size : 39.0 KiB (0%)

Title : German

Language : German

Default : No

Forced : No

Text #3

ID : 5

Format : UTF-8

Codec ID : S_TEXT/UTF8

Codec ID/Info : UTF-8 Plain Text

Duration : 2 h 26 min

Bit rate : 37 b/s

Count of elements : 1411

Stream size : 40.3 KiB (0%)

Title : Japanese

Language : Japanese

Default : No

Forced : No

Text #4

ID : 6

Format : UTF-8

Codec ID : S_TEXT/UTF8

Codec ID/Info : UTF-8 Plain Text

Duration : 2 h 26 min

Bit rate : 60 b/s

Count of elements : 1436

Stream size : 64.7 KiB (0%)

Title : Greek

Language : Greek

Default : No

Forced : No

Text #5

ID : 7

Format : UTF-8

Codec ID : S_TEXT/UTF8

Codec ID/Info : UTF-8 Plain Text

Duration : 2 h 25 min

Bit rate : 64 b/s

Count of elements : 2149

Stream size : 68.7 KiB (0%)

Title : German [CC]
Language : German

Default : No

Forced : No

Text #6

ID : 8

Format : UTF-8

Codec ID : S_TEXT/UTF8

Codec ID/Info : UTF-8 Plain Text

Duration : 2 h 26 min

Bit rate : 35 b/s

Count of elements : 1413

Stream size : 37.6 KiB (0%)

Title : Hungarian

Language : Hungarian

Default : No

Forced : No

Text #7

ID : 9

Format : UTF-8

Codec ID : S_TEXT/UTF8

Codec ID/Info : UTF-8 Plain Text

Duration : 2 h 26 min

Bit rate : 36 b/s

Count of elements : 1421

Stream size : 38.6 KiB (0%)

Title : Spanish

Language : Spanish

Default : No

Forced : No

Text #8

ID : 10

Format : UTF-8

Codec ID : S_TEXT/UTF8

Codec ID/Info : UTF-8 Plain Text

Duration : 2 h 19 min

Bit rate : 49 b/s

Count of elements : 1752

Stream size : 50.3 KiB (0%)

Title : Italian [CC]
Language : Italian

Default : No

Forced : No

Text #9

ID : 11

Format : UTF-8

Codec ID : S_TEXT/UTF8

Codec ID/Info : UTF-8 Plain Text

Duration : 2 h 26 min

Bit rate : 45 b/s

Count of elements : 1473

Stream size : 48.8 KiB (0%)

Title : Korean

Language : Korean

Default : No

Forced : No

Text #10

ID : 12

Format : UTF-8

Codec ID : S_TEXT/UTF8

Codec ID/Info : UTF-8 Plain Text

Duration : 2 h 26 min

Bit rate : 38 b/s

Count of elements : 1455

Stream size : 41.2 KiB (0%)

Title : Chinese Simplified

Language : Chinese

Default : No

Forced : No

Text #11

ID : 13

Format : UTF-8

Codec ID : S_TEXT/UTF8

Codec ID/Info : UTF-8 Plain Text

Duration : 2 h 26 min

Bit rate : 34 b/s

Count of elements : 1364

Stream size : 36.9 KiB (0%)

Title : European Spanish

Language : Spanish

Default : No

Forced : No

Text #12

ID : 14

Format : UTF-8

Codec ID : S_TEXT/UTF8

Codec ID/Info : UTF-8 Plain Text

Duration : 2 h 23 min

Bit rate : 46 b/s

Count of elements : 1727

Stream size : 49.2 KiB (0%)

Title : Spanish [CC]
Language : Spanish

Default : No

Forced : No

Text #13

ID : 15

Format : UTF-8

Codec ID : S_TEXT/UTF8

Codec ID/Info : UTF-8 Plain Text

Duration : 2 h 26 min

Bit rate : 36 b/s

Count of elements : 1373

Stream size : 38.8 KiB (0%)

Title : Swedish

Language : Swedish

Default : No

Forced : No

Text #14

ID : 16

Format : UTF-8

Codec ID : S_TEXT/UTF8

Codec ID/Info : UTF-8 Plain Text

Duration : 2 h 26 min

Bit rate : 35 b/s

Count of elements : 1350

Stream size : 38.2 KiB (0%)

Title : Norwegian Bokmal

Language : Norwegian Bokmal

Default : No

Forced : No

Text #15

ID : 17

Format : UTF-8

Codec ID : S_TEXT/UTF8

Codec ID/Info : UTF-8 Plain Text

Duration : 2 h 25 min

Bit rate : 33 b/s

Count of elements : 1447

Stream size : 35.6 KiB (0%)

Title : Croatian

Language : Croatian

Default : No

Forced : No

Text #16

ID : 18

Format : UTF-8

Codec ID : S_TEXT/UTF8

Codec ID/Info : UTF-8 Plain Text

Duration : 2 h 26 min

Bit rate : 33 b/s

Count of elements : 1225

Stream size : 35.6 KiB (0%)

Title : Dutch

Language : Dutch

Default : No

Forced : No

Text #17

ID : 19

Format : UTF-8

Codec ID : S_TEXT/UTF8

Codec ID/Info : UTF-8 Plain Text

Duration : 2 h 26 min

Bit rate : 51 b/s

Count of elements : 1422

Stream size : 54.7 KiB (0%)

Title : Vietnamese

Language : Vietnamese

Default : No

Forced : No

Text #18

ID : 20

Format : UTF-8

Codec ID : S_TEXT/UTF8

Codec ID/Info : UTF-8 Plain Text

Duration : 2 h 26 min

Bit rate : 95 b/s

Count of elements : 1454

Stream size : 102 KiB (0%)

Title : Thai

Language : Thai

Default : No

Forced : No

Text #19

ID : 21

Format : UTF-8

Codec ID : S_TEXT/UTF8

Codec ID/Info : UTF-8 Plain Text

Duration : 2 h 26 min

Bit rate : 34 b/s

Count of elements : 1444

Stream size : 37.0 KiB (0%)

Title : Indonesian

Language : Indonesian

Default : No

Forced : No

Text #20

ID : 22

Format : UTF-8

Codec ID : S_TEXT/UTF8

Codec ID/Info : UTF-8 Plain Text

Duration : 2 h 26 min

Bit rate : 35 b/s

Count of elements : 1401

Stream size : 37.7 KiB (0%)

Title : Italian

Language : Italian

Default : No

Forced : No

Text #21

ID : 23

Format : UTF-8

Codec ID : S_TEXT/UTF8

Codec ID/Info : UTF-8 Plain Text

Duration : 2 h 26 min

Bit rate : 33 b/s

Count of elements : 1340

Stream size : 36.3 KiB (0%)

Title : Danish

Language : Danish

Default : No

Forced : No

Text #22

ID : 24

Format : UTF-8

Codec ID : S_TEXT/UTF8

Codec ID/Info : UTF-8 Plain Text

Duration : 17 s 584 ms

Bit rate : 104 b/s

Count of elements : 7

Stream size : 230 Bytes (0%)

Title : English [Forced]
Language : English

Default : No

Forced : Yes

Text #23

ID : 25

Format : UTF-8

Codec ID : S_TEXT/UTF8

Codec ID/Info : UTF-8 Plain Text

Duration : 2 h 23 min

Bit rate : 50 b/s

Count of elements : 1878

Stream size : 53.0 KiB (0%)

Title : Brazilian Portuguese [CC]
Language : Portuguese

Default : No

Forced : No

Text #24

ID : 26

Format : UTF-8

Codec ID : S_TEXT/UTF8

Codec ID/Info : UTF-8 Plain Text

Duration : 2 h 26 min

Bit rate : 35 b/s

Count of elements : 1367

Stream size : 37.8 KiB (0%)

Title : Finnish

Language : Finnish

Default : No

Forced : No

Text #25

ID : 27

Format : UTF-8

Codec ID : S_TEXT/UTF8

Codec ID/Info : UTF-8 Plain Text

Duration : 2 h 26 min

Bit rate : 58 b/s

Count of elements : 1446

Stream size : 62.3 KiB (0%)

Title : Ukrainian

Language : Ukrainian

Default : No

Forced : No

Text #26

ID : 28

Format : UTF-8

Codec ID : S_TEXT/UTF8

Codec ID/Info : UTF-8 Plain Text

Duration : 2 h 23 min

Bit rate : 53 b/s

Count of elements : 1844

Stream size : 56.4 KiB (0%)

Title : French [CC]
Language : French

Default : No

Forced : No

Text #27

ID : 29

Format : UTF-8

Codec ID : S_TEXT/UTF8

Codec ID/Info : UTF-8 Plain Text

Duration : 2 h 26 min

Bit rate : 60 b/s

Count of elements : 1403

Stream size : 65.2 KiB (0%)

Title : Hebrew

Language : Hebrew

Default : No

Forced : No

Text #28

ID : 30

Format : UTF-8

Codec ID : S_TEXT/UTF8

Codec ID/Info : UTF-8 Plain Text

Duration : 2 h 26 min

Bit rate : 36 b/s

Count of elements : 1309

Stream size : 39.3 KiB (0%)

Title : French

Language : French

Default : No

Forced : No

Text #29

ID : 31

Format : UTF-8

Codec ID : S_TEXT/UTF8

Codec ID/Info : UTF-8 Plain Text

Duration : 2 h 26 min

Bit rate : 35 b/s

Count of elements : 1463

Stream size : 38.4 KiB (0%)

Title : Brazilian Portuguese

Language : Portuguese

Default : No

Forced : No

Text #30

ID : 32

Format : UTF-8

Codec ID : S_TEXT/UTF8

Codec ID/Info : UTF-8 Plain Text

Duration : 2 h 26 min

Bit rate : 59 b/s

Count of elements : 1447

Stream size : 63.5 KiB (0%)

Title : Russian

Language : Russian

Default : No

Forced : No

Text #31

ID : 33

Format : UTF-8

Codec ID : S_TEXT/UTF8

Codec ID/Info : UTF-8 Plain Text

Duration : 2 h 26 min

Bit rate : 30 b/s

Count of elements : 1403

Stream size : 32.6 KiB (0%)

Title : Polish

Language : Polish

Default : No

Forced : No

Text #32

ID : 34

Format : UTF-8

Codec ID : S_TEXT/UTF8

Codec ID/Info : UTF-8 Plain Text

Duration : 2 h 26 min

Bit rate : 37 b/s

Count of elements : 1310

Stream size : 39.6 KiB (0%)

Title : Turkish

Language : Turkish

Default : No

Forced : No

Text #33

ID : 35

Format : UTF-8

Codec ID : S_TEXT/UTF8

Codec ID/Info : UTF-8 Plain Text

Duration : 2 h 26 min

Bit rate : 35 b/s

Count of elements : 1448

Stream size : 38.2 KiB (0%)

Title : Portuguese

Language : Portuguese

Default : No

Forced : No

Text #34

ID : 36

Format : UTF-8

Codec ID : S_TEXT/UTF8

Codec ID/Info : UTF-8 Plain Text

Duration : 2 h 23 min

Bit rate : 132 b/s

Count of elements : 1842

Stream size : 140 KiB (0%)

Title : Hindi [CC]
Language : Hindi

Default : No

Forced : No

Text #35

ID : 37

Format : UTF-8

Codec ID : S_TEXT/UTF8

Codec ID/Info : UTF-8 Plain Text

Duration : 2 h 26 min

Bit rate : 72 b/s

Count of elements : 1460

Stream size : 77.9 KiB (0%)

Title : Arabic

Language : Arabic

Default : No

Forced : No

Text #36

ID : 38

Format : UTF-8

Codec ID : S_TEXT/UTF8

Codec ID/Info : UTF-8 Plain Text

Duration : 2 h 26 min

Bit rate : 33 b/s

Count of elements : 1445

Stream size : 35.8 KiB (0%)

Title : Malay

Language : Malay

Default : No

Forced : No

Text #37

ID : 39

Format : UTF-8

Codec ID : S_TEXT/UTF8

Codec ID/Info : UTF-8 Plain Text

Duration : 2 h 26 min

Bit rate : 35 b/s

Count of elements : 1448

Stream size : 38.3 KiB (0%)

Title : Czech

Language : Czech

Default : No

Forced : No

Text #38

ID : 40

Format : UTF-8

Codec ID : S_TEXT/UTF8

Codec ID/Info : UTF-8 Plain Text

Duration : 2 h 26 min

Bit rate : 40 b/s

Count of elements : 1299

Stream size : 42.8 KiB (0%)

Title : Romanian

Language : Romanian

Default : No

Forced : No

Text #39

ID : 41

Format : UTF-8

Codec ID : S_TEXT/UTF8

Codec ID/Info : UTF-8 Plain Text

Duration : 2 h 26 min

Bit rate : 38 b/s

Count of elements : 1529

Stream size : 41.5 KiB (0%)

Title : Chinese Traditional

Language : Chinese

Default : No

Forced : No

Army.of.the.Dead.2021.2160p.NDownload Torrent Magnet

#ArmyoftheDead20212160pN