Armageddon (1998) (2160p BluR Full Torrent Magnet Download

Download Torrent Armageddon (1998) (2160p BluR Movie Full in HD Result. Movie Armageddon (1998) (2160p BluR Torrent Download full. Movie Armageddon (1998) (2160p BluR torrent Magnet Download Full. Armageddon (1998) (2160p BluR Full Movie Torrent Download And Magnet Download For your PC And Mobiles. Latest Movie Armageddon (1998) (2160p BluR Download Link In Bottom.

Torrent And Magnet Links Below

Media Information
I refuse to be limited to the sources that the studios let us have. As such I used AI Inference Software and days of processing to create a new source sharp and clean of compression artifacts. Enjoy this world exclusive 4K Source from the good people at UTR.

Media Information

Code:

General
Format : Matroska

Format version : Version 4 / Version 2

File size : 7.28 GiB

Duration : 2 h 31 min

Overall bit rate : 6 875 kb/s

Encoded date : UTC 2021-03-11 06:55:14

Writing application : mkvmerge v52.0.0 (‘Secret For The Mad’) 64-bit

Writing library : libebml v1.4.1 + libmatroska v1.6.2

Attachments : folder-gigapixel-scale-2_00x.jpg

Video
ID : 1

Format : HEVC

Format/Info : High Efficiency Video Coding

Format profile : Main [email protected]@Main

Codec ID : V_MPEGH/ISO/HEVC

Duration : 2 h 30 min

Bit rate : 6 001 kb/s

Width : 3 840 pixels

Height : 1 600 pixels

Display aspect ratio : 2.40:1

Frame rate mode : Constant

Frame rate : 23.976 (24000/1001) FPS

Color space : YUV

Chroma subsampling : 4:2:0

Bit depth : 10 bits

Bits/(Pixel*Frame) : 0.041

Stream size : 6.32 GiB (87%)

Writing library : x265 3.2+9-971180b100f8:[Windows][GCC 9.2.0][64 bit] 10bit

Encoding settings : cpuid=1111039 / frame-threads=3 / numa-pools=12 / wpp / no-pmode / no-pme / no-psnr / ssim / log-level=2 / input-csp=1 / input-res=3840×1600 / interlace=0 / total-frames=216988 / level-idc=0 / high-tier=1 / uhd-bd=0 / ref=4 / no-allow-non-conformance / no-repeat-headers / annexb / no-aud / no-hrd / info / hash=0 / no-temporal-layers / open-gop / min-keyint=23 / keyint=250 / gop-lookahead=0 / bframes=8 / b-adapt=2 / b-pyramid / bframe-bias=40 / rc-lookahead=80 / lookahead-slices=4 / scenecut=40 / radl=0 / no-splice / no-intra-refresh / ctu=64 / min-cu-size=8 / rect / no-amp / max-tu-size=32 / tu-inter-depth=1 / tu-intra-depth=1 / limit-tu=0 / rdoq-level=2 / dynamic-rd=0.00 / ssim-rd / signhide / no-tskip / nr-intra=0 / nr-inter=0 / constrained-intra / strong-intra-smoothing / max-merge=3 / limit-refs=3 / limit-modes / me=3 / subme=3 / merange=57 / temporal-mvp / no-frame-dup / no-hme / weightp / no-weightb / no-analyze-src-pics / deblock=0:0 / sao / no-sao-non-deblock / rd=4 / selective-sao=4 / early-skip / rskip / no-fast-intra / no-tskip-fast / no-cu-lossless / no-b-intra / splitrd-skip / rdpenalty=0 / psy-rd=2.45 / psy-rdoq=1.50 / no-rd-refine / no-lossless / cbqpoffs=0 / crqpoffs=0 / rc=abr / bitrate=6000 / qcomp=0.60 / qpstep=4 / stats-write=0 / stats-read=2 / cplxblur=20.0 / qblur=0.5 / ipratio=1.40 / pbratio=1.30 / aq-mode=3 / aq-strength=0.40 / cutree / zone-count=0 / no-strict-cbr / qg-size=32 / no-rc-grain / qpmax=69 / qpmin=0 / no-const-vbv / sar=0 / overscan=0 / videoformat=5 / range=0 / colorprim=2 / transfer=2 / colormatrix=2 / chromaloc=0 / display-window=0 / cll=0,0 / min-luma=0 / max-luma=1023 / log2-max-poc-lsb=8 / vui-timing-info / vui-hrd-info / slices=1 / no-opt-qp-pps / no-opt-ref-list-length-pps / multi-pass-opt-rps / scenecut-bias=0.05 / no-opt-cu-delta-qp / no-aq-motion / no-hdr / no-hdr-opt / no-dhdr10-opt / no-idr-recovery-sei / analysis-load / analysis-reuse-level=10 / scale-factor=0 / refine-intra=0 / refine-inter=0 / refine-mv=1 / refine-ctu-distortion=0 / limit-sao / ctu-info=0 / no-lowpass-dct / refine-analysis-type=0 / copy-pic=1 / max-ausize-factor=1.0 / no-dynamic-refine / no-single-sei / no-hevc-aq / no-svt / no-field / qp-adaptation-range=1.00

Default : Yes

Forced : No

Audio #1
ID : 2

Format : AC-3

Format/Info : Audio Coding 3

Mode extension : CM (complete main)

Format settings, Endianness : Big

Codec ID : A_AC3

Duration : 2 h 30 min

Bit rate mode : Constant

Bit rate : 448 kb/s

Channel(s) : 6 channels

Channel positions : Front: L C R, Side: L R, LFE

Sampling rate : 48.0 kHz

Frame rate : 31.250 FPS (1536 spf)

Bit depth : 16 bits

Compression mode : Lossy

Stream size : 483 MiB (6%)

Language : English

Default : No

Forced : No

Audio #2
ID : 3

Format : AAC

Format/Info : Advanced Audio Codec

Format profile : LC

Codec ID : A_AAC

Duration : 2 h 30 min

Bit rate : 103 kb/s

Channel(s) : 2 channels

Channel positions : Front: L R

Sampling rate : 48.0 kHz

Frame rate : 46.875 FPS (1024 spf)

Compression mode : Lossy

Delay relative to video : 9 ms

Stream size : 111 MiB (1%)

Language : Italian

Default : No

Forced : No

Audio #3
ID : 4

Format : AAC

Format/Info : Advanced Audio Codec

Format profile : LC

Codec ID : A_AAC

Duration : 2 h 30 min

Bit rate : 110 kb/s

Channel(s) : 2 channels

Channel positions : Front: L R

Sampling rate : 48.0 kHz

Frame rate : 46.875 FPS (1024 spf)

Compression mode : Lossy

Delay relative to video : 9 ms

Stream size : 119 MiB (2%)

Language : Czech

Default : No

Forced : No

Audio #4
ID : 5

Format : AAC

Format/Info : Advanced Audio Codec

Format profile : LC

Codec ID : A_AAC

Duration : 2 h 30 min

Bit rate : 104 kb/s

Channel(s) : 2 channels

Channel positions : Front: L R

Sampling rate : 48.0 kHz

Frame rate : 46.875 FPS (1024 spf)

Compression mode : Lossy

Delay relative to video : 9 ms

Stream size : 112 MiB (2%)

Language : Russian

Default : No

Forced : No

Subtitle #1
ID : 6

Format : PGS

Muxing mode : zlib

Codec ID : S_HDMV/PGS

Codec ID/Info : Picture based subtitle format used on BDs/HD-DVDs

Duration : 2 h 29 min

Bit rate : 52.2 kb/s

Count of elements : 4622

Stream size : 55.8 MiB (1%)

Language : English

Default : No

Forced : No

Subtitle #2
ID : 7

Format : VobSub

Muxing mode : zlib

Codec ID : S_VOBSUB

Codec ID/Info : Picture based subtitle format used on DVDs

Duration : 2 h 29 min

Bit rate : 15.0 kb/s

Count of elements : 2576

Stream size : 16.0 MiB (0%)

Language : English

Default : No

Forced : No

Subtitle #3
ID : 8

Format : VobSub

Muxing mode : zlib

Codec ID : S_VOBSUB

Codec ID/Info : Picture based subtitle format used on DVDs

Duration : 2 h 22 min

Bit rate : 10.1 kb/s

Count of elements : 1589

Stream size : 10.3 MiB (0%)

Language : Italian

Default : No

Forced : No

Subtitle #4
ID : 9

Format : VobSub

Muxing mode : zlib

Codec ID : S_VOBSUB

Codec ID/Info : Picture based subtitle format used on DVDs

Duration : 1 h 44 min

Bit rate : 107 b/s

Count of elements : 16

Stream size : 82.1 KiB (0%)

Language : Italian

Default : No

Forced : No

Subtitle #5
ID : 10

Format : VobSub

Muxing mode : zlib

Codec ID : S_VOBSUB

Codec ID/Info : Picture based subtitle format used on DVDs

Duration : 2 h 22 min

Bit rate : 10.9 kb/s

Count of elements : 1880

Stream size : 11.1 MiB (0%)

Language : Portuguese

Default : No

Forced : No

Subtitle #6
ID : 11

Format : VobSub

Muxing mode : zlib

Codec ID : S_VOBSUB

Codec ID/Info : Picture based subtitle format used on DVDs

Duration : 57 min 15 s

Bit rate : 39 b/s

Count of elements : 3

Stream size : 16.7 KiB (0%)

Language : Polish

Default : No

Forced : No

Subtitle #7
ID : 12

Format : VobSub

Muxing mode : zlib

Codec ID : S_VOBSUB

Codec ID/Info : Picture based subtitle format used on DVDs

Duration : 2 h 29 min

Bit rate : 8 163 b/s

Count of elements : 1467

Stream size : 8.73 MiB (0%)

Language : Czech

Default : No

Forced : No

Subtitle #8
ID : 13

Format : VobSub

Muxing mode : zlib

Codec ID : S_VOBSUB

Codec ID/Info : Picture based subtitle format used on DVDs

Duration : 2 h 28 min

Bit rate : 37 b/s

Count of elements : 9

Stream size : 40.5 KiB (0%)

Language : Czech

Default : No

Forced : No

Subtitle #9
ID : 14

Format : VobSub

Muxing mode : zlib

Codec ID : S_VOBSUB

Codec ID/Info : Picture based subtitle format used on DVDs

Duration : 2 h 22 min

Bit rate : 9 256 b/s

Count of elements : 1775

Stream size : 9.45 MiB (0%)

Language : Hungarian

Default : No

Forced : No

Subtitle #10
ID : 15

Format : VobSub

Muxing mode : zlib

Codec ID : S_VOBSUB

Codec ID/Info : Picture based subtitle format used on DVDs

Duration : 2 h 5 min

Bit rate : 95 b/s

Count of elements : 20

Stream size : 87.9 KiB (0%)

Language : Hungarian

Default : No

Forced : No

Subtitle #11
ID : 16

Format : VobSub

Muxing mode : zlib

Codec ID : S_VOBSUB

Codec ID/Info : Picture based subtitle format used on DVDs

Duration : 2 h 22 min

Bit rate : 6 895 b/s

Count of elements : 1640

Stream size : 7.04 MiB (0%)

Language : Polish

Default : No

Forced : No

Subtitle #12
ID : 17

Format : VobSub

Muxing mode : zlib

Codec ID : S_VOBSUB

Codec ID/Info : Picture based subtitle format used on DVDs

Duration : 2 h 22 min

Bit rate : 7 209 b/s

Count of elements : 1948

Stream size : 7.36 MiB (0%)

Language : Hebrew

Default : No

Forced : No

Subtitle #13
ID : 18

Format : VobSub

Muxing mode : zlib

Codec ID : S_VOBSUB

Codec ID/Info : Picture based subtitle format used on DVDs

Duration : 2 h 22 min

Bit rate : 10.5 kb/s

Count of elements : 1687

Stream size : 10.8 MiB (0%)

Language : Greek

Default : No

Forced : No

Subtitle #14
ID : 19

Format : VobSub

Muxing mode : zlib

Codec ID : S_VOBSUB

Codec ID/Info : Picture based subtitle format used on DVDs

Duration : 2 h 29 min

Bit rate : 13.6 kb/s

Count of elements : 2344

Stream size : 14.5 MiB (0%)

Language : Turkish

Default : No

Forced : No

Subtitle #15
ID : 20

Format : VobSub

Muxing mode : zlib

Codec ID : S_VOBSUB

Codec ID/Info : Picture based subtitle format used on DVDs

Duration : 2 h 29 min

Bit rate : 13.3 kb/s

Count of elements : 2348

Stream size : 14.2 MiB (0%)

Language : Slovak

Default : No

Forced : No

Subtitle #16
ID : 21

Format : VobSub

Muxing mode : zlib

Codec ID : S_VOBSUB

Codec ID/Info : Picture based subtitle format used on DVDs

Duration : 2 h 29 min

Bit rate : 13.5 kb/s

Count of elements : 2347

Stream size : 14.5 MiB (0%)

Language : Russian

Default : No

Forced : No

Subtitle #17
ID : 22

Format : VobSub

Muxing mode : zlib

Codec ID : S_VOBSUB

Codec ID/Info : Picture based subtitle format used on DVDs

Duration : 2 h 29 min

Bit rate : 14.0 kb/s

Count of elements : 2350

Stream size : 15.0 MiB (0%)

Language : Ukrainian

Default : No

Forced : No

Subtitle #18
ID : 23

Format : VobSub

Muxing mode : zlib

Codec ID : S_VOBSUB

Codec ID/Info : Picture based subtitle format used on DVDs

Duration : 2 h 22 min

Bit rate : 9 773 b/s

Count of elements : 1508

Stream size : 9.98 MiB (0%)

Language : Bulgarian

Default : No

Forced : No

Subtitle #19
ID : 24

Format : VobSub

Muxing mode : zlib

Codec ID : S_VOBSUB

Codec ID/Info : Picture based subtitle format used on DVDs

Duration : 2 h 29 min

Bit rate : 12.8 kb/s

Count of elements : 2347

Stream size : 13.7 MiB (0%)

Language : Romanian

Default : No

Forced : No

Subtitle #20
ID : 25

Format : VobSub

Muxing mode : zlib

Codec ID : S_VOBSUB

Codec ID/Info : Picture based subtitle format used on DVDs

Duration : 2 h 22 min

Bit rate : 9 784 b/s

Count of elements : 1856

Stream size : 9.99 MiB (0%)

Language : Croatian

Default : No

Forced : No

Subtitle #21
ID : 26

Format : VobSub

Muxing mode : zlib

Codec ID : S_VOBSUB

Codec ID/Info : Picture based subtitle format used on DVDs

Duration : 2 h 22 min

Bit rate : 8 414 b/s

Count of elements : 1602

Stream size : 8.59 MiB (0%)

Language : Slovenian

Default : No

Forced : No

Subtitle #22
ID : 27

Format : VobSub

Muxing mode : zlib

Codec ID : S_VOBSUB

Codec ID/Info : Picture based subtitle format used on DVDs

Duration : 2 h 29 min

Bit rate : 14.2 kb/s

Count of elements : 2350

Stream size : 15.1 MiB (0%)

Language : Serbian

Default : No

Forced : No

Subtitle #23
ID : 28

Format : VobSub

Muxing mode : zlib

Codec ID : S_VOBSUB

Codec ID/Info : Picture based subtitle format used on DVDs

Duration : 2 h 12 min

Bit rate : 180 b/s

Count of elements : 31

Stream size : 176 KiB (0%)

Language : Russian

Default : No

Forced : No

Subtitle #24
ID : 29

Format : UTF-8

Codec ID : S_TEXT/UTF8

Codec ID/Info : UTF-8 Plain Text

Duration : 2 h 31 min

Bit rate : 119 b/s

Count of elements : 2101

Stream size : 132 KiB (0%)

Language : Arabic

Default : No

Forced : No

Subtitle #25
ID : 30

Format : UTF-8

Codec ID : S_TEXT/UTF8

Codec ID/Info : UTF-8 Plain Text

Duration : 2 h 22 min

Bit rate : 51 b/s

Count of elements : 2181

Stream size : 53.5 KiB (0%)

Language : Chinese

Default : No

Forced : No

Subtitle #26
ID : 31

Format : UTF-8

Codec ID : S_TEXT/UTF8

Codec ID/Info : UTF-8 Plain Text

Duration : 2 h 29 min

Bit rate : 54 b/s

Count of elements : 1541

Stream size : 59.8 KiB (0%)

Language : Danish

Default : No

Forced : No

Subtitle #27
ID : 32

Format : UTF-8

Codec ID : S_TEXT/UTF8

Codec ID/Info : UTF-8 Plain Text

Duration : 2 h 22 min

Bit rate : 45 b/s

Count of elements : 1583

Stream size : 47.7 KiB (0%)

Language : Dutch

Default : No

Forced : No

Subtitle #28
ID : 33

Format : UTF-8

Codec ID : S_TEXT/UTF8

Codec ID/Info : UTF-8 Plain Text

Duration : 2 h 29 min

Bit rate : 60 b/s

Count of elements : 1592

Stream size : 66.4 KiB (0%)

Language : Finnish

Default : No

Forced : No

Subtitle #29
ID : 34

Format : UTF-8

Codec ID : S_TEXT/UTF8

Codec ID/Info : UTF-8 Plain Text

Duration : 2 h 29 min

Bit rate : 54 b/s

Count of elements : 1674

Stream size : 59.1 KiB (0%)

Language : French

Default : No

Forced : No

Subtitle #30
ID : 35

Format : UTF-8

Codec ID : S_TEXT/UTF8

Codec ID/Info : UTF-8 Plain Text

Duration : 2 h 29 min

Bit rate : 72 b/s

Count of elements : 2172

Stream size : 79.1 KiB (0%)

Language : German

Default : No

Forced : No

Subtitle #31
ID : 36

Format : UTF-8

Codec ID : S_TEXT/UTF8

Codec ID/Info : UTF-8 Plain Text

Duration : 2 h 22 min

Bit rate : 99 b/s

Count of elements : 1687

Stream size : 104 KiB (0%)

Language : Greek

Default : No

Forced : No

Subtitle #32
ID : 37

Format : UTF-8

Codec ID : S_TEXT/UTF8

Codec ID/Info : UTF-8 Plain Text

Duration : 2 h 24 min

Bit rate : 86 b/s

Count of elements : 2026

Stream size : 90.9 KiB (0%)

Language : Indonesian

Default : No

Forced : No

Subtitle #33
ID : 38

Format : UTF-8

Codec ID : S_TEXT/UTF8

Codec ID/Info : UTF-8 Plain Text

Duration : 2 h 22 min

Bit rate : 74 b/s

Count of elements : 2284

Stream size : 78.3 KiB (0%)

Language : Korean

Default : No

Forced : No

Subtitle #34
ID : 39

Format : UTF-8

Codec ID : S_TEXT/UTF8

Codec ID/Info : UTF-8 Plain Text

Duration : 2 h 29 min

Bit rate : 71 b/s

Count of elements : 2083

Stream size : 78.0 KiB (0%)

Language : Malay

Default : No

Forced : No

Subtitle #35
ID : 40

Format : UTF-8

Codec ID : S_TEXT/UTF8

Codec ID/Info : UTF-8 Plain Text

Duration : 2 h 22 min

Bit rate : 49 b/s

Count of elements : 1311

Stream size : 51.7 KiB (0%)

Language : Norwegian

Default : No

Forced : No

Subtitle #36
ID : 41

Format : UTF-8

Codec ID : S_TEXT/UTF8

Codec ID/Info : UTF-8 Plain Text

Duration : 2 h 29 min

Bit rate : 56 b/s

Count of elements : 1564

Stream size : 61.7 KiB (0%)

Language : Swedish

Default : No

Forced : No

Subtitle #37
ID : 42

Format : UTF-8

Codec ID : S_TEXT/UTF8

Codec ID/Info : UTF-8 Plain Text

Duration : 2 h 23 min

Bit rate : 123 b/s

Count of elements : 2091

Stream size : 130 KiB (0%)

Language : Thai

Default : No

Forced : No

Subtitle #38
ID : 43

Format : UTF-8

Codec ID : S_TEXT/UTF8

Codec ID/Info : UTF-8 Plain Text

Duration : 2 h 29 min

Bit rate : 93 b/s

Count of elements : 2323

Stream size : 103 KiB (0%)

Language : Vietnamese

Default : No

Forced : No

Menu
00:00:00.000 : en:Chapter 01

00:06:21.255 : en:Chapter 02

00:11:56.298 : en:Chapter 03

00:23:14.601 : en:Chapter 04

00:28:47.058 : en:Chapter 05

00:35:30.586 : en:Chapter 06

00:39:57.520 : en:Chapter 07

00:45:55.919 : en:Chapter 08

00:48:40.709 : en:Chapter 09

00:51:19.534 : en:Chapter 10

00:56:26.925 : en:Chapter 11

00:59:10.838 : en:Chapter 12

01:07:15.322 : en:Chapter 13

01:11:16.647 : en:Chapter 14

01:21:02.816 : en:Chapter 15

01:24:10.628 : en:Chapter 16

01:32:42.682 : en:Chapter 17

01:41:15.194 : en:Chapter 18

01:51:56.084 : en:Chapter 19

01:55:56.157 : en:Chapter 20

01:59:27.535 : en:Chapter 21

02:00:37.271 : en:Chapter 22

02:05:21.430 : en:Chapter 23

02:08:14.561 : en:Chapter 24

02:12:50.837 : en:Chapter 25

02:15:00.342 : en:Chapter 26

02:23:56.044 : en:Chapter 27

Source Information

Code:

Release:
Armageddon (1998) 2160p.BluRay.AI.DTS.UTR.mkv (99.46 GBs)

Code:


Note From UTR
Whilst we are happy for our releases to be re-posted on a platform we aren’t on, please do so in an ‘as-is’ format. We ask that you do not create a new torrent, include all descriptions you see above including the UTR logo, tags, notes and screenshots. If you’d like to become a permanent poster on a website we don’t post to, feel free to get in contact with a UTR member.

If possible please donate for seedboxes.

BTC – 1QA5fum5AyXvWzdVCkQzUNvw3Ef15fHRaR

Monero – 8AuksPSzY7fen3HHT1a2342PgVy4J93MKfXG3AAcayV76miTyJ3sNfn38srwrpLirGfeR5DwhTL8GW8pdQgT7bZcJ25ynMx

Dash – Xh4mNs6uwZdpCEX2HSEVwGvPD7yKxZ1Ccd

Ethereum – 0x51c06c94e74c16735a7a6e841ad29fc90a84eb1f

Armageddon (1998) (2160p BluRDownload Torrent Magnet

#Armageddon #2160p #BluR