Aquaslash 2019 1080p BLURAY R Full Torrent Magnet Download

Download Torrent Aquaslash 2019 1080p BLURAY R Movie Full in HD Result. Movie Aquaslash 2019 1080p BLURAY R Torrent Download full. Movie Aquaslash 2019 1080p BLURAY R torrent Magnet Download Full. Aquaslash 2019 1080p BLURAY R Full Movie Torrent Download And Magnet Download For your PC And Mobiles. Latest Movie Aquaslash 2019 1080p BLURAY R Download Link In Bottom.

Torrent And Magnet Links Below

Aquaslash 2019 1080p BLURAY REMUX AVC DTS-HD M.A 5.1-iCMAL [TGx]

Certification

Germany:18  Mexico:B  Norway:15 (VOD)  South Korea:18 (2020)  United Kingdom:15  United States:Not Rated

Thrills, Chills and screwball comedy meet tiny bikinis and gory dismemberment in this chlorine and blood drenched murder mystery.

Director: Renaud Gauthier

Writer: Renaud Gauthier

Stars: Nicolas Fontaine, Brittany Drisdelle, Nick Walker

Storyline

To celebrate their graduation, the teenagers from Valley Hills High School have organized an ’80s-themed party in an old water park. Things grow gruesome when it turns out that a mysterious maniac has inserted giant razor blades into the water slides. The Wet Valley water park thus becomes the backdrop for a bloodbath (literally), and everyone is a suspect.

Let me start by saying I love Horror movies, especially slasher flicks. The idea of the movie was really quite good and original, unfortunately, the script and pace of the movie were awful. On the plus side, cinemaphotography was pretty good, and the acting was a lot better than in some horror movies I’ve seen. The Reason I’ve given it 3 stars rather than 5, movie lasts 70 mins, 50 mins of it are boring.

DownloadsAquaslash 2019 1080p BLURAY REMUX AVC DTS-HD M.A 5.1-iCMALAquaslash 2019 1080p BLURAY REMUX AVC DTS-HD M.A 5.1-iCMAL.mkv

Format                                   : Matroska

Format version                           : Version 4

File size                                : 14.3 GiB

Duration                                 : 1 h 11 min

Overall bit rate mode                    : Variable

Overall bit rate                         : 28.8 Mb/s

Movie name                               : Aquaslash 2019 1080p BLURAY REMUX AVC DTS-HD M.A 5.1-iCMAL

Encoded date                             : UTC 2021-02-10 11:28:33

Video

ID                                       : 1

Format                                   : AVC

Format/Info                              : Advanced Video Codec

Format profile                           : [email protected]
Format settings                          : CABAC / 4 Ref Frames

Format settings, CABAC                   : Yes

Format settings, Reference frames        : 4 frames

Format settings, GOP                     : M=3, N=24

Codec ID                                 : V_MPEG4/ISO/AVC

Duration                                 : 1 h 11 min

Bit rate mode                            : Variable

Bit rate                                 : 25.0 Mb/s

Maximum bit rate                         : 32.0 Mb/s

Width                                    : 1 920 pixels

Height                                   : 1 080 pixels

Display aspect ratio                     : 16:9

Frame rate mode                          : Constant

Frame rate                               : 23.976 (24000/1001) FPS

Standard                                 : NTSC

Color space                              : YUV

Chroma subsampling                       : 4:2:0

Bit depth                                : 8 bits

Scan type                                : Progressive

Bits/(Pixel*Frame)                       : 0.503

Stream size                              : 12.4 GiB (87%)

Title                                    : REMUX By_iCMAL RELEASE GROUP 2014©

Default                                  : Yes

Forced                                   : No

Color range                              : Limited

Color primaries                          : BT.709

Transfer characteristics                 : BT.709

Matrix coefficients                      : BT.709

Audio

ID                                       : 2

Format                                   : DTS XLL

Format/Info                              : Digital Theater Systems

Commercial name                          : DTS-HD Master Audio

Codec ID                                 : A_DTS

Duration                                 : 1 h 11 min

Bit rate mode                            : Variable

Bit rate                                 : 3 773 kb/s

Channel(s)                               : 6 channels

Channel layout                           : C L R Ls Rs LFE

Sampling rate                            : 48.0 kHz

Frame rate                               : 93.750 FPS (512 SPF)

Bit depth                                : 24 bits

Compression mode                         : Lossless

Stream size                              : 1.88 GiB (13%)

Title                                    : REMUX By_iCMAL RELEASE GROUP 2014©

Language                                 : English

Default                                  : Yes

Forced                                   : No

































Aquaslash 2019 1080p BLURAY RDownload Torrent Magnet

#Aquaslash #1080p #BLURAY