Anonymous (2011) (1080p x265 Full Torrent Magnet Download

Download Torrent Anonymous (2011) (1080p x265 Movie Full in HD Result. Movie Anonymous (2011) (1080p x265 Torrent Download full. Movie Anonymous (2011) (1080p x265 torrent Magnet Download Full. Anonymous (2011) (1080p x265 Full Movie Torrent Download And Magnet Download For your PC And Mobiles. Latest Movie Anonymous (2011) (1080p x265 Download Link In Bottom.

Torrent And Magnet Links Below

General

Format : Matroska

Format version : Version 4

File size : 4.82 GiB

Duration : 2 h 9 min

Overall bit rate : 5 311 kb/s

Movie name : Anonymous (2011)

Encoded date : UTC 2021-06-04 17:47:01

Writing application : mkvmerge v53.0.0 (‘Fool’s Gold’) 64-bit

Writing library : libebml v1.4.1 + libmatroska v1.6.2

Video

ID : 1

Format : HEVC

Format/Info : High Efficiency Video Coding

Format profile : Main [email protected]@Main

Codec ID : V_MPEGH/ISO/HEVC

Duration : 2 h 9 min

Bit rate : 4 222 kb/s

Width : 1 920 pixels

Height : 816 pixels

Display aspect ratio : 2.35:1

Frame rate mode : Constant

Frame rate : 23.976 (24000/1001) FPS

Color space : YUV

Chroma subsampling : 4:2:0

Bit depth : 10 bits

Bits/(Pixel*Frame) : 0.112

Stream size : 3.83 GiB (79%)

Writing library : x265 3.5_RC1+2+23-bd060601e:[Windows][GCC 10.2.0][64 bit] 10bit

Encoding settings : cpuid=1111039 / frame-threads=4 / numa-pools=24 / wpp / no-pmode / no-pme / no-psnr / no-ssim / log-level=2 / input-csp=1 / input-res=1920×816 / interlace=0 / total-frames=186960 / level-idc=0 / high-tier=1 / uhd-bd=0 / ref=5 / no-allow-non-conformance / no-repeat-headers / annexb / no-aud / no-hrd / info / hash=0 / no-temporal-layers / open-gop / min-keyint=23 / keyint=250 / gop-lookahead=0 / bframes=8 / b-adapt=2 / b-pyramid / bframe-bias=0 / rc-lookahead=40 / lookahead-slices=1 / scenecut=40 / hist-scenecut=0 / radl=0 / no-splice / no-intra-refresh / ctu=64 / min-cu-size=8 / rect / amp / max-tu-size=32 / tu-inter-depth=3 / tu-intra-depth=3 / limit-tu=4 / rdoq-level=2 / dynamic-rd=0.00 / no-ssim-rd / signhide / no-tskip / nr-intra=0 / nr-inter=0 / no-constrained-intra / strong-intra-smoothing / max-merge=4 / limit-refs=1 / limit-modes / me=3 / subme=4 / merange=57 / temporal-mvp / no-frame-dup / no-hme / weightp / weightb / no-analyze-src-pics / deblock=0:0 / sao / no-sao-non-deblock / rd=6 / selective-sao=4 / no-early-skip / rskip / no-fast-intra / no-tskip-fast / no-cu-lossless / b-intra / no-splitrd-skip / rdpenalty=0 / psy-rd=2.00 / psy-rdoq=1.00 / no-rd-refine / no-lossless / cbqpoffs=0 / crqpoffs=0 / rc=crf / crf=18.0 / qcomp=0.60 / qpstep=4 / stats-write=0 / stats-read=0 / ipratio=1.40 / pbratio=1.30 / aq-mode=3 / aq-strength=1.00 / cutree / zone-count=0 / no-strict-cbr / qg-size=32 / no-rc-grain / qpmax=69 / qpmin=0 / no-const-vbv / sar=0 / overscan=0 / videoformat=5 / range=0 / colorprim=2 / transfer=2 / colormatrix=2 / chromaloc=0 / display-window=0 / cll=0,0 / min-luma=0 / max-luma=1023 / log2-max-poc-lsb=8 / vui-timing-info / vui-hrd-info / slices=1 / no-opt-qp-pps / no-opt-ref-list-length-pps / no-multi-pass-opt-rps / scenecut-bias=0.05 / hist-threshold=0.03 / no-opt-cu-delta-qp / no-aq-motion / no-hdr10 / no-hdr10-opt / no-dhdr10-opt / no-idr-recovery-sei / analysis-reuse-level=0 / analysis-save-reuse-level=0 / analysis-load-reuse-level=0 / scale-factor=0 / refine-intra=0 / refine-inter=0 / refine-mv=1 / refine-ctu-distortion=0 / no-limit-sao / ctu-info=0 / no-lowpass-dct / refine-analysis-type=0 / copy-pic=1 / max-ausize-factor=1.0 / no-dynamic-refine / no-single-sei / no-hevc-aq / no-svt / no-field / qp-adaptation-range=1.00 / scenecut-aware-qp=0conformance-window-offsets / right=0 / bottom=0 / decoder-max-rate=0 / no-vbv-live-multi-pass

Default : Yes

Forced : No

Audio #1

ID : 2

Format : AC-3

Format/Info : Audio Coding 3

Commercial name : Dolby Digital

Codec ID : A_AC3

Duration : 2 h 9 min

Bit rate mode : Constant

Bit rate : 640 kb/s

Channel(s) : 6 channels

Channel layout : L R C LFE Ls Rs

Sampling rate : 48.0 kHz

Frame rate : 31.250 FPS (1536 SPF)

Compression mode : Lossy

Stream size : 595 MiB (12%)

Language : English

Service kind : Complete Main

Default : Yes

Forced : No

Audio #2

ID : 3

Format : AC-3

Format/Info : Audio Coding 3

Commercial name : Dolby Digital

Format settings : Dolby Surround

Codec ID : A_AC3

Duration : 2 h 9 min

Bit rate mode : Constant

Bit rate : 192 kb/s

Channel(s) : 2 channels

Channel layout : L R

Sampling rate : 48.0 kHz

Frame rate : 31.250 FPS (1536 SPF)

Compression mode : Lossy

Stream size : 178 MiB (4%)

Title : Commentary with Director Roland Emmerich and Writer John Orloff

Language : English

Service kind : Complete Main

Default : No

Forced : No

Text #1

ID : 4

Format : PGS

Muxing mode : zlib

Codec ID : S_HDMV/PGS

Codec ID/Info : Picture based subtitle format used on BDs/HD-DVDs

Duration : 2 h 2 min

Bit rate : 33.1 kb/s

Count of elements : 3224

Stream size : 29.1 MiB (1%)

Language : English

Default : No

Forced : No

Text #2

ID : 5

Format : PGS

Muxing mode : zlib

Codec ID : S_HDMV/PGS

Codec ID/Info : Picture based subtitle format used on BDs/HD-DVDs

Duration : 2 h 2 min

Bit rate : 16.5 kb/s

Count of elements : 3402

Stream size : 14.5 MiB (0%)

Language : Arabic

Default : No

Forced : No

Text #3

ID : 6

Format : PGS

Muxing mode : zlib

Codec ID : S_HDMV/PGS

Codec ID/Info : Picture based subtitle format used on BDs/HD-DVDs

Duration : 2 h 8 min

Bit rate : 31.2 kb/s

Count of elements : 3145

Stream size : 28.8 MiB (1%)

Language : Danish

Default : No

Forced : No

Text #4

ID : 7

Format : PGS

Muxing mode : zlib

Codec ID : S_HDMV/PGS

Codec ID/Info : Picture based subtitle format used on BDs/HD-DVDs

Duration : 2 h 2 min

Bit rate : 30.4 kb/s

Count of elements : 3269

Stream size : 26.7 MiB (1%)

Language : Dutch

Default : No

Forced : No

Text #5

ID : 8

Format : PGS

Muxing mode : zlib

Codec ID : S_HDMV/PGS

Codec ID/Info : Picture based subtitle format used on BDs/HD-DVDs

Duration : 2 h 9 min

Bit rate : 30.2 kb/s

Count of elements : 2802

Stream size : 27.9 MiB (1%)

Language : Finnish

Default : No

Forced : No

Text #6

ID : 9

Format : PGS

Muxing mode : zlib

Codec ID : S_HDMV/PGS

Codec ID/Info : Picture based subtitle format used on BDs/HD-DVDs

Duration : 2 h 8 min

Bit rate : 27.9 kb/s

Count of elements : 3356

Stream size : 25.7 MiB (1%)

Language : French

Default : No

Forced : No

Text #7

ID : 10

Format : PGS

Muxing mode : zlib

Codec ID : S_HDMV/PGS

Codec ID/Info : Picture based subtitle format used on BDs/HD-DVDs

Duration : 2 h 2 min

Bit rate : 34.0 kb/s

Count of elements : 3195

Stream size : 29.9 MiB (1%)

Language : German

Default : No

Forced : No

Text #8

ID : 11

Format : PGS

Muxing mode : zlib

Codec ID : S_HDMV/PGS

Codec ID/Info : Picture based subtitle format used on BDs/HD-DVDs

Duration : 2 h 9 min

Bit rate : 21.6 kb/s

Count of elements : 3190

Stream size : 20.0 MiB (0%)

Language : Korean

Default : No

Forced : No

Text #9

ID : 12

Format : PGS

Muxing mode : zlib

Codec ID : S_HDMV/PGS

Codec ID/Info : Picture based subtitle format used on BDs/HD-DVDs

Duration : 2 h 8 min

Bit rate : 27.6 kb/s

Count of elements : 3105

Stream size : 25.5 MiB (1%)

Language : Norwegian Bokmal

Default : No

Forced : No

Text #10

ID : 13

Format : PGS

Muxing mode : zlib

Codec ID : S_HDMV/PGS

Codec ID/Info : Picture based subtitle format used on BDs/HD-DVDs

Duration : 2 h 2 min

Bit rate : 33.4 kb/s

Count of elements : 3273

Stream size : 29.3 MiB (1%)

Language : Portuguese

Default : No

Forced : No

Text #11

ID : 14

Format : PGS

Muxing mode : zlib

Codec ID : S_HDMV/PGS

Codec ID/Info : Picture based subtitle format used on BDs/HD-DVDs

Duration : 2 h 2 min

Bit rate : 30.1 kb/s

Count of elements : 2634

Stream size : 26.4 MiB (1%)

Language : Swedish

Default : No

Forced : No

Text #12

ID : 15

Format : PGS

Muxing mode : zlib

Codec ID : S_HDMV/PGS

Codec ID/Info : Picture based subtitle format used on BDs/HD-DVDs

Duration : 2 h 8 min

Bit rate : 27.3 kb/s

Count of elements : 3244

Stream size : 25.2 MiB (1%)

Language : Thai

Default : No

Forced : No

Text #13

ID : 16

Format : PGS

Muxing mode : zlib

Codec ID : S_HDMV/PGS

Codec ID/Info : Picture based subtitle format used on BDs/HD-DVDs

Duration : 2 h 8 min

Bit rate : 31.5 kb/s

Count of elements : 3229

Stream size : 29.1 MiB (1%)

Language : Turkish

Default : No

Forced : No

Text #14

ID : 17

Format : PGS

Muxing mode : zlib

Codec ID : S_HDMV/PGS

Codec ID/Info : Picture based subtitle format used on BDs/HD-DVDs

Duration : 2 h 9 min

Bit rate : 55.4 kb/s

Count of elements : 4541

Stream size : 51.4 MiB (1%)

Title : Commentary

Language : Dutch

Default : No

Forced : No

Text #15

ID : 18

Format : PGS

Muxing mode : zlib

Codec ID : S_HDMV/PGS

Codec ID/Info : Picture based subtitle format used on BDs/HD-DVDs

Duration : 2 h 9 min

Bit rate : 45.8 kb/s

Count of elements : 4633

Stream size : 42.5 MiB (1%)

Title : Commentary

Language : French

Default : No

Forced : No

Text #16

ID : 19

Format : PGS

Muxing mode : zlib

Codec ID : S_HDMV/PGS

Codec ID/Info : Picture based subtitle format used on BDs/HD-DVDs

Duration : 2 h 9 min

Bit rate : 62.8 kb/s

Count of elements : 4829

Stream size : 58.3 MiB (1%)

Title : Commentary

Language : German

Default : No

Forced : No

Text #17

ID : 20

Format : PGS

Muxing mode : zlib

Codec ID : S_HDMV/PGS

Codec ID/Info : Picture based subtitle format used on BDs/HD-DVDs

Duration : 2 h 9 min

Bit rate : 53.0 kb/s

Count of elements : 4825

Stream size : 49.2 MiB (1%)

Title : Commentary

Language : Portuguese

Default : No

Forced : No

Menu

00:00:00.000 : en:Chapter 1

00:10:02.977 : en:Chapter 2

00:17:42.728 : en:Chapter 3

00:27:33.694 : en:Chapter 4

00:37:43.720 : en:Chapter 5

00:43:53.631 : en:Chapter 6

00:50:02.208 : en:Chapter 7

00:58:16.785 : en:Chapter 8

01:04:57.435 : en:Chapter 9

01:11:15.313 : en:Chapter 10

01:19:48.200 : en:Chapter 11

01:30:14.576 : en:Chapter 12

01:36:08.096 : en:Chapter 13

01:43:21.862 : en:Chapter 14

01:51:52.915 : en:Chapter 15

01:57:54.818 : en:Chapter 16

Source:

Remux 25.3 GB

Coming Soon:

Jumanji The Next Level 4k

Apt Pupil

The Avengers 4k

Up in the Air

True Grit
Troy

Traitor

Avengers: Age of Ultron 4k

Atlantis: Lost Empire

Bad Santa

BASEketball

Beerfest

Avengers: Infinity War 4k

Arrested Development S02

Mobile Suit Gundam 00 S02

Anonymous (2011) (1080p x265 Download Torrent Magnet

#Anonymous #1080p #x265