And Now For Something Complet Full Torrent Magnet Download

Download Torrent And Now For Something Complet Movie Full in HD Result. Movie And Now For Something Complet Torrent Download full. Movie And Now For Something Complet torrent Magnet Download Full. And Now For Something Complet Full Movie Torrent Download And Magnet Download For your PC And Mobiles. Latest Movie And Now For Something Complet Download Link In Bottom.

Torrent And Magnet Links Below

General

Format : Matroska

Format version : Version 4

File size : 10.9 GiB

Duration : 1 h 28 min

Overall bit rate : 17.7 Mb/s

Movie name : And Now for Something Completely Different

Encoded date : UTC 2021-06-04 05:16:21

Writing application : mkvmerge v51.0.0 (‘I Wish’) 64-bit

Writing library : libebml v1.4.0 + libmatroska v1.6.2

Cover : Yes

Attachments : cover.jpg

Video

ID : 1

Format : HEVC

Format/Info : High Efficiency Video Coding

Format profile : Main [email protected]@Main

Codec ID : V_MPEGH/ISO/HEVC

Duration : 1 h 28 min

Bit rate : 17.5 Mb/s

Width : 1 920 pixels

Height : 1 080 pixels

Display aspect ratio : 16:9

Frame rate mode : Constant

Frame rate : 24.000 FPS

Color space : YUV

Chroma subsampling : 4:2:0

Bit depth : 10 bits

Bits/(Pixel*Frame) : 0.351

Stream size : 10.8 GiB (98%)

Writing library : x265 3.5_RC1+2+23-bd060601e:[Windows][GCC 10.2.0][64 bit] 10bit

Encoding settings : cpuid=1111039 / frame-threads=4 / numa-pools=24 / wpp / no-pmode / no-pme / no-psnr / no-ssim / log-level=2 / input-csp=1 / input-res=1920×1080 / interlace=0 / total-frames=127128 / level-idc=0 / high-tier=1 / uhd-bd=0 / ref=5 / no-allow-non-conformance / no-repeat-headers / annexb / no-aud / no-hrd / info / hash=0 / no-temporal-layers / open-gop / min-keyint=24 / keyint=250 / gop-lookahead=0 / bframes=8 / b-adapt=2 / b-pyramid / bframe-bias=0 / rc-lookahead=40 / lookahead-slices=1 / scenecut=40 / hist-scenecut=0 / radl=0 / no-splice / no-intra-refresh / ctu=64 / min-cu-size=8 / rect / amp / max-tu-size=32 / tu-inter-depth=3 / tu-intra-depth=3 / limit-tu=4 / rdoq-level=2 / dynamic-rd=0.00 / no-ssim-rd / signhide / no-tskip / nr-intra=0 / nr-inter=0 / no-constrained-intra / strong-intra-smoothing / max-merge=4 / limit-refs=1 / limit-modes / me=3 / subme=4 / merange=57 / temporal-mvp / no-frame-dup / no-hme / weightp / weightb / no-analyze-src-pics / deblock=0:0 / sao / no-sao-non-deblock / rd=6 / selective-sao=4 / no-early-skip / rskip / no-fast-intra / no-tskip-fast / no-cu-lossless / b-intra / no-splitrd-skip / rdpenalty=0 / psy-rd=2.00 / psy-rdoq=1.00 / no-rd-refine / no-lossless / cbqpoffs=0 / crqpoffs=0 / rc=crf / crf=19.0 / qcomp=0.60 / qpstep=4 / stats-write=0 / stats-read=0 / ipratio=1.40 / pbratio=1.30 / aq-mode=3 / aq-strength=1.00 / cutree / zone-count=0 / no-strict-cbr / qg-size=32 / no-rc-grain / qpmax=69 / qpmin=0 / no-const-vbv / sar=0 / overscan=0 / videoformat=5 / range=0 / colorprim=2 / transfer=2 / colormatrix=2 / chromaloc=0 / display-window=0 / cll=0,0 / min-luma=0 / max-luma=1023 / log2-max-poc-lsb=8 / vui-timing-info / vui-hrd-info / slices=1 / no-opt-qp-pps / no-opt-ref-list-length-pps / no-multi-pass-opt-rps / scenecut-bias=0.05 / hist-threshold=0.03 / no-opt-cu-delta-qp / no-aq-motion / no-hdr10 / no-hdr10-opt / no-dhdr10-opt / no-idr-recovery-sei / analysis-reuse-level=0 / analysis-save-reuse-level=0 / analysis-load-reuse-level=0 / scale-factor=0 / refine-intra=0 / refine-inter=0 / refine-mv=1 / refine-ctu-distortion=0 / no-limit-sao / ctu-info=0 / no-lowpass-dct / refine-analysis-type=0 / copy-pic=1 / max-ausize-factor=1.0 / no-dynamic-refine / no-single-sei / no-hevc-aq / no-svt / no-field / qp-adaptation-range=1.00 / scenecut-aware-qp=0conformance-window-offsets / right=0 / bottom=0 / decoder-max-rate=0 / no-vbv-live-multi-pass

Default : Yes

Forced : No

Audio

ID : 5

Format : AC-3

Format/Info : Audio Coding 3

Commercial name : Dolby Digital

Codec ID : A_AC3

Duration : 1 h 28 min

Bit rate mode : Constant

Bit rate : 224 kb/s

Channel(s) : 2 channels

Channel layout : L R

Sampling rate : 48.0 kHz

Frame rate : 31.250 FPS (1536 SPF)

Compression mode : Lossy

Stream size : 141 MiB (1%)

Language : English

Service kind : Complete Main

Default : Yes

Forced : No

Text #1

ID : 2

Format : PGS

Muxing mode : zlib

Codec ID : S_HDMV/PGS

Codec ID/Info : Picture based subtitle format used on BDs/HD-DVDs

Duration : 1 h 21 min

Bit rate : 663 b/s

Count of elements : 34

Stream size : 398 KiB (0%)

Language : German

Default : No

Forced : No

Text #2

ID : 3

Format : PGS

Muxing mode : zlib

Codec ID : S_HDMV/PGS

Codec ID/Info : Picture based subtitle format used on BDs/HD-DVDs

Duration : 1 h 25 min

Bit rate : 43.4 kb/s

Count of elements : 1698

Stream size : 26.7 MiB (0%)

Language : German

Default : No

Forced : No

Text #3

ID : 4

Format : PGS

Muxing mode : zlib

Codec ID : S_HDMV/PGS

Codec ID/Info : Picture based subtitle format used on BDs/HD-DVDs

Duration : 1 h 25 min

Bit rate : 38.3 kb/s

Count of elements : 1664

Stream size : 23.5 MiB (0%)

Language : English

Default : No

Forced : No

Menu

00:00:00.000 : en:Kapitel 01

00:03:35.000 : en:Kapitel 02

00:05:49.708 : en:Kapitel 03

00:10:08.250 : en:Kapitel 04

00:17:03.958 : en:Kapitel 05

00:19:32.916 : en:Kapitel 06

00:23:20.375 : en:Kapitel 07

00:26:50.000 : en:Kapitel 08

00:29:05.458 : en:Kapitel 09

00:36:02.750 : en:Kapitel 10

00:39:03.333 : en:Kapitel 11

00:41:51.000 : en:Kapitel 12

00:45:04.375 : en:Kapitel 13

00:48:13.625 : en:Kapitel 14

00:54:59.458 : en:Kapitel 15

00:59:12.875 : en:Kapitel 16

01:01:24.000 : en:Kapitel 17

01:07:02.250 : en:Kapitel 18

01:08:34.625 : en:Kapitel 19

01:11:25.666 : en:Kapitel 20

01:16:18.333 : en:Kapitel 21

01:19:36.833 : en:Kapitel 22

01:20:46.458 : en:Kapitel 23

01:22:02.458 : en:Kapitel 24

01:26:05.916 : en:Kapitel 25

Source:

Remux 22.9 GB

Coming Soon:

Anonymous

Jumanji The Next Level 4k

Apt Pupil

The Avengers 4k

Up in the Air

True Grit
Troy

Traitor

Avengers: Age of Ultron 4k

Arrested Development S02

Mobile Suit Gundam 00 S02

And Now For Something CompletDownload Torrent Magnet

#Complet