Ammonite.2020.iTA.ENG.AC3.SUB Full Torrent Magnet Download

Download Torrent Ammonite.2020.iTA.ENG.AC3.SUB Movie Full in HD Result. Movie Ammonite.2020.iTA.ENG.AC3.SUB Torrent Download full. Movie Ammonite.2020.iTA.ENG.AC3.SUB torrent Magnet Download Full. Ammonite.2020.iTA.ENG.AC3.SUB Full Movie Torrent Download And Magnet Download For your PC And Mobiles. Latest Movie Ammonite.2020.iTA.ENG.AC3.SUB Download Link In Bottom.

Torrent And Magnet Links Below


Ammonite


Titolo originale: Ammonite

Genere: Drammatico, Sentimentale

Anno: 2020

Regia: Francis Lee

Attori: Saoirse Ronan, Kate Winslet, Fiona Shaw, Gemma Jones, Claire Rushbrook, Alec Secareanu, Harvey Scrimshaw, James McArdle

Paese: USA, Australia, Gran Bretagna

Sceneggiatura: Francis Lee

Fotografia : Stéphane Fontaine

Montaggio: Chris Wyatt

Musiche: Volker Bertelmann, Dustin O’Halloran

Produzione: See-Saw Films, British Film Institute (BFI), BBC Films, Cross City Films, Stage 6 Films


Ammonite, il film di Francis Lee, è ambientato nell’Inghilterra del 1840, dove la celebre cercatrici di fossili Mary Anning (Kate Winslet), ormai caduta in disgrazia, lavora in solitudine sull’aspra costa meridionale del paese.

Passato il tempo delle grandi scoperte, la donna ormai si accontenta di trovare fossili di poco valore da vendere ai turisti, per mantenere se stessa e la madre malata.

Un giorno arriva un ricco uomo che le chiede di occuparsi di sua moglie Charlotte Murchison (Saoirse Ronan), venuta a passare lì la sua convalescenza. E’ un’offerta che Mary non può rifiutare.

All’inizio le due donne si trovano spesso a scontarsi, ma presto, nonostante le differenze sociali e caratteriali, tra Mary e Charlotte si sviluppa un intenso legame che le porta ad interrogarsi sulla vera natura del loro rapporto.




General

Unique ID : 173229806548191088028991580447812340072 (0x8252D8E013EF3056AC7DE9C7FB03C968)

Complete name : Ammonite.2020.iTA.ENG.AC3.SUB.iTA.ENG.BluRay.1080p.x264.jeddak-MIRCrew.mkv

Format : Matroska

Format version : Version 2

File size : 2.50 GiB

Duration : 1 h 57 min

Overall bit rate : 3 039 kb/s

Movie name : Ammonite.2020.iTA.ENG.AC3.SUB.iTA.ENG.BluRay.1080p.x264.jeddak-MIRCrew

Encoded date : UTC 2021-04-23 04:39:11

Writing application : mkvmerge v5.6.0 (‘Kenya Kane’) built on May 27 2012 16:44:04

Writing library : libebml v1.2.3 + libmatroska v1.3.0 / Lavf58.29.100

Video

ID : 1

Format : AVC

Format/Info : Advanced Video Codec

Format profile : [email protected]
Format settings : CABAC / 4 Ref Frames

Format settings, CABAC : Yes

Format settings, Reference : 4 frames

Codec ID : V_MPEG4/ISO/AVC

Duration : 1 h 57 min

Bit rate : 2 146 kb/s

Nominal bit rate : 2 300 kb/s

Width : 1 920 pixels

Height : 1 036 pixels

Display aspect ratio : 1.85:1

Frame rate mode : Constant

Frame rate : 23.976 (24000/1001) FPS

Color space : YUV

Chroma subsampling : 4:2:0

Bit depth : 8 bits

Scan type : Progressive

Bits/(Pixel*Frame) : 0.045

Stream size : 1.77 GiB (71%)

Title : …::: jeddak MIRCrew :::…

Writing library : x264 core 148

Encoding settings : cabac=1 / ref=3 / deblock=1:-1:-1 / analyse=0x3:0x113 / me=hex / subme=7 / psy=1 / psy_rd=1.00:0.15 / mixed_ref=1 / me_range=16 / chroma_me=1 / trellis=1 / 8x8dct=1 / cqm=0 / deadzone=21,11 / fast_pskip=1 / chroma_qp_offset=-3 / threads=6 / lookahead_threads=1 / sliced_threads=0 / nr=0 / decimate=1 / interlaced=0 / bluray_compat=0 / constrained_intra=0 / bframes=3 / b_pyramid=2 / b_adapt=1 / b_bias=0 / direct=1 / weightb=1 / open_gop=0 / weightp=2 / keyint=240 / keyint_min=24 / scenecut=40 / intra_refresh=0 / rc_lookahead=40 / rc=abr / mbtree=1 / bitrate=2300 / ratetol=1.0 / qcomp=0.60 / qpmin=0 / qpmax=69 / qpstep=4 / vbv_maxrate=62500 / vbv_bufsize=78125 / nal_hrd=none / filler=0 / ip_ratio=1.40 / aq=1:1.00

Default : Yes

Forced : No

Color range : Limited

Color primaries : BT.709

Transfer characteristics : BT.709

Matrix coefficients : BT.709

Audio #1

ID : 2

Format : AC-3

Format/Info : Audio Coding 3

Commercial name : Dolby Digital

Codec ID : A_AC3

Duration : 1 h 57 min

Bit rate mode : Constant

Bit rate : 384 kb/s

Channel(s) : 6 channels

Channel layout : L R C LFE Ls Rs

Sampling rate : 48.0 kHz

Frame rate : 31.250 FPS (1536 SPF)

Compression mode : Lossy

Delay relative to video : 8 s 951 ms

Stream size : 323 MiB (13%)

Title : iTA AC3 5.1

Language : Italian

Service kind : Complete Main

Default : Yes

Forced : No

Audio #2

ID : 3

Format : AC-3

Format/Info : Audio Coding 3

Commercial name : Dolby Digital

Codec ID : A_AC3

Duration : 1 h 57 min

Bit rate mode : Constant

Bit rate : 448 kb/s

Channel(s) : 6 channels

Channel layout : L R C LFE Ls Rs

Sampling rate : 48.0 kHz

Frame rate : 31.250 FPS (1536 SPF)

Compression mode : Lossy

Delay relative to video : -5 ms

Stream size : 378 MiB (15%)

Title : ENG AC3 5.1

Language : English

Service kind : Complete Main

Default : No

Forced : No

Text #1

ID : 4

Format : ASS

Codec ID : S_TEXT/ASS

Codec ID/Info : Advanced Sub Station Alpha

Compression mode : Lossless

Title : iTA FORCED

Language : Italian

Default : Yes

Forced : Yes

Text #2

ID : 5

Format : ASS

Codec ID : S_TEXT/ASS

Codec ID/Info : Advanced Sub Station Alpha

Compression mode : Lossless

Title : iTA REGULAR

Language : Italian

Default : No

Forced : No

Text #3

ID : 6

Format : ASS

Codec ID : S_TEXT/ASS

Codec ID/Info : Advanced Sub Station Alpha

Duration : 1 h 50 min

Compression mode : Lossless

Title : ENG NON UDENTI

Language : English

Default : No

Forced : No

Menu

00:00:00.000 : :Capitolo 01

00:10:00.266 : :Capitolo 02

00:20:00.199 : :Capitolo 03

00:30:01.508 : :Capitolo 04

00:40:02.483 : :Capitolo 05

00:50:03.459 : :Capitolo 06

01:00:04.017 : :Capitolo 07

01:10:05.702 : :Capitolo 08

01:20:05.384 : :Capitolo 09

01:30:09.112 : :Capitolo 10

01:40:05.208 : :Capitolo 11

01:50:06.767 : :Capitolo 12

01:52:34.873 : :Capitolo 13

Ammonite.2020.iTA.ENG.AC3.SUBDownload Torrent Magnet

#Ammonite2020iTAENGAC3SUB