American.Animals.2018.BRRip.X Full Torrent Magnet Download

Download Torrent American.Animals.2018.BRRip.X Movie Full in HD Result. Movie American.Animals.2018.BRRip.X Torrent Download full. Movie American.Animals.2018.BRRip.X torrent Magnet Download Full. American.Animals.2018.BRRip.X Full Movie Torrent Download And Magnet Download For your PC And Mobiles. Latest Movie American.Animals.2018.BRRip.X Download Link In Bottom.

Torrent And Magnet Links Below

American.Animals.2018.BRRip.XviD.B4ND1T69

Director: Bart Layton

Writers: Bart Layton, Jon Croker (additional material)

Stars: Spencer Reinhard, Warren Lipka, Eric Borsuk

Plot/Story:

Four young men mistake their lives for a movie and attempt one of the most audacious heists in U.S. history.

General

Complete name : American.Animals.2018.BRRip.XviD.B4ND1T69.avi

Format : AVI

Format/Info : Audio Video Interleave

File size : 837 MiB

Duration : 1 h 56 min

Overall bit rate : 1 002 kb/s

Subtitles : Yes…Included(HI)

Video

ID : 0

Format : MPEG-4 Visual

Format profile : Advanced [email protected]
Format settings, BVOP : 2

Format settings, QPel : No

Format settings, GMC : No warppoints

Format settings, Matrix : Default (H.263)

Codec ID : XVID

Codec ID/Hint : XviD

Duration : 1 h 56 min

Bit rate : 860 kb/s

Width : 720 pixels

Height : 304 pixels

Display aspect ratio : 2.35:1

Frame rate : 23.976 (24000/1001) FPS

Color space : YUV

Chroma subsampling : 4:2:0

Bit depth : 8 bits

Scan type : Progressive

Compression mode : Lossy

Bits/(Pixel*Frame) : 0.164

Stream size : 719 MiB (86%)

Writing library : XviD 64

Audio

ID : 1

Format : MPEG Audio

Format version : Version 1

Format profile : Layer 3

Codec ID : 55

Codec ID/Hint : MP3

Duration : 1 h 56 min

Bit rate mode : Constant

Bit rate : 128 kb/s

Channel(s) : 2 channels

Sampling rate : 48.0 kHz

Compression mode : Lossy

Stream size : 107 MiB (13%)

Alignment : Aligned on interleaves

Interleave, duration : 24 ms (0.58 video frame)

Screenshots:









Please Seed For As Long As Possible

Or At Least 1:1 Ratio…Thanks

Enjoy Peeps

American.Animals.2018.BRRip.XDownload Torrent Magnet

#AmericanAnimals2018BRRipX