Alien³ (1992) DC (1080p BluRa Full Torrent Magnet Download

Download Torrent Alien³ (1992) DC (1080p BluRa Movie Full in HD Result. Movie Alien³ (1992) DC (1080p BluRa Torrent Download full. Movie Alien³ (1992) DC (1080p BluRa torrent Magnet Download Full. Alien³ (1992) DC (1080p BluRa Full Movie Torrent Download And Magnet Download For your PC And Mobiles. Latest Movie Alien³ (1992) DC (1080p BluRa Download Link In Bottom.

Torrent And Magnet Links Below

Media Information
I refuse to be limited to the sources that the studios let us have. As such I used AI Inference Software and days of processing to create a new source sharp and clean of compression artifacts. Enjoy this world exclusive 4K Source from the good people at UTR – JoyBell

Media Information

Code:

General
Format                                   : Matroska

Format version                           : Version 4 / Version 2

File size                                : 2.00 GiB

Duration                                 : 2 h 24 min

Overall bit rate                         : 1 974 kb/s

Encoded date                             : UTC 2021-02-08 07:36:34

Writing application                      : mkvmerge v52.0.0 (‘Secret For The Mad’) 64-bit

Writing library                          : libebml v1.4.1 + libmatroska v1.6.2

Cover                                    : Yes

Attachments                              : cover.jpg

Video
ID                                       : 1

Format                                   : HEVC

Format/Info                              : High Efficiency Video Coding

Format profile                           : Main [email protected]@Main

Codec ID                                 : V_MPEGH/ISO/HEVC

Duration                                 : 2 h 24 min

Bit rate                                 : 1 501 kb/s

Width                                    : 1 920 pixels

Height                                   : 800 pixels

Display aspect ratio                     : 2.40:1

Frame rate mode                          : Constant

Frame rate                               : 23.976 (24000/1001) FPS

Color space                              : YUV

Chroma subsampling                       : 4:2:0

Bit depth                                : 10 bits

Bits/(Pixel*Frame)                       : 0.041

Stream size                              : 1.52 GiB (76%)

Writing library                          : x265 3.2+9-971180b100f8:[Windows][MSVC 1923][64 bit] 10bit

Encoding settings                        : cpuid=1111039 / frame-threads=4 / numa-pools=24 / wpp / no-pmode / no-pme / no-psnr / ssim / log-level=2 / input-csp=1 / input-res=1920×800 / interlace=0 / total-frames=208415 / level-idc=0 / high-tier=1 / uhd-bd=0 / ref=4 / no-allow-non-conformance / no-repeat-headers / annexb / no-aud / no-hrd / info / hash=0 / no-temporal-layers / open-gop / min-keyint=23 / keyint=250 / gop-lookahead=0 / bframes=8 / b-adapt=2 / b-pyramid / bframe-bias=40 / rc-lookahead=80 / lookahead-slices=4 / scenecut=40 / radl=0 / no-splice / no-intra-refresh / ctu=64 / min-cu-size=8 / rect / no-amp / max-tu-size=32 / tu-inter-depth=1 / tu-intra-depth=1 / limit-tu=0 / rdoq-level=2 / dynamic-rd=0.00 / ssim-rd / signhide / no-tskip / nr-intra=0 / nr-inter=0 / constrained-intra / strong-intra-smoothing / max-merge=5 / limit-refs=3 / limit-modes / me=3 / subme=7 / merange=57 / temporal-mvp / no-frame-dup / no-hme / weightp / no-weightb / no-analyze-src-pics / deblock=0:0 / sao / no-sao-non-deblock / rd=4 / selective-sao=4 / early-skip / rskip / no-fast-intra / no-tskip-fast / no-cu-lossless / no-b-intra / splitrd-skip / rdpenalty=0 / psy-rd=3.50 / psy-rdoq=2.50 / no-rd-refine / no-lossless / cbqpoffs=0 / crqpoffs=0 / rc=abr / bitrate=1500 / qcomp=0.60 / qpstep=4 / stats-write=0 / stats-read=2 / cplxblur=20.0 / qblur=0.5 / ipratio=1.40 / pbratio=1.30 / aq-mode=3 / aq-strength=0.40 / cutree / zone-count=0 / no-strict-cbr / qg-size=32 / no-rc-grain / qpmax=69 / qpmin=0 / no-const-vbv / sar=0 / overscan=0 / videoformat=5 / range=0 / colorprim=1 / transfer=1 / colormatrix=1 / chromaloc=0 / display-window=0 / cll=0,0 / min-luma=0 / max-luma=1023 / log2-max-poc-lsb=8 / vui-timing-info / vui-hrd-info / slices=1 / no-opt-qp-pps / no-opt-ref-list-length-pps / multi-pass-opt-rps / scenecut-bias=0.05 / no-opt-cu-delta-qp / no-aq-motion / no-hdr / no-hdr-opt / no-dhdr10-opt / no-idr-recovery-sei / analysis-load / analysis-reuse-level=10 / scale-factor=0 / refine-intra=0 / refine-inter=0 / refine-mv=1 / refine-ctu-distortion=0 / limit-sao / ctu-info=0 / no-lowpass-dct / refine-analysis-type=0 / copy-pic=1 / max-ausize-factor=1.0 / no-dynamic-refine / no-single-sei / no-hevc-aq / no-svt / no-field / qp-adaptation-range=1.00

Default                                  : Yes

Forced                                   : No

Color range                              : Limited

Color primaries                          : BT.709

Transfer characteristics                 : BT.709

Matrix coefficients                      : BT.709

Audio #1
ID                                       : 2

Format                                   : AAC

Format/Info                              : Advanced Audio Codec

Format profile                           : LC

Codec ID                                 : A_AAC

Duration                                 : 2 h 24 min

Bit rate                                 : 328 kb/s

Channel(s)                               : 6 channels

Channel positions                        : Front: L C R, Side: L R, LFE

Sampling rate                            : 48.0 kHz

Frame rate                               : 46.875 FPS (1024 spf)

Compression mode                         : Lossy

Delay relative to video                  : 9 ms

Stream size                              : 340 MiB (17%)

Language                                 : English

Default                                  : No

Forced                                   : No

Audio #2
ID                                       : 3

Format                                   : AAC

Format/Info                              : Advanced Audio Codec

Format profile                           : HE-AAC / LC

Codec ID                                 : A_AAC

Duration                                 : 2 h 24 min

Bit rate                                 : 45.7 kb/s

Channel(s)                               : 2 channels

Channel positions                        : Front: L R

Sampling rate                            : 48.0 kHz / 24.0 kHz

Frame rate                               : 23.438 FPS (1024 spf)

Compression mode                         : Lossy

Delay relative to video                  : 31 ms

Stream size                              : 47.3 MiB (2%)

Title                                    : Commentary by cinematographer Alex Thomson, editor Terry Rawlings, Alec Gillis, Tom Woodruff Jr., Richard Edlund, Paul McGann and Lance Henriksen

Language                                 : English

Default                                  : No

Forced                                   : No

Subtitle #1
ID                                       : 4

Format                                   : VobSub

Muxing mode                              : zlib

Codec ID                                 : S_VOBSUB

Codec ID/Info                            : Picture based subtitle format used on DVDs

Duration                                 : 2 h 23 min

Bit rate                                 : 10.2 kb/s

Count of elements                        : 1570

Stream size                              : 10.5 MiB (1%)

Language                                 : English

Default                                  : No

Forced                                   : No

Subtitle #2
ID                                       : 5

Format                                   : VobSub

Muxing mode                              : zlib

Codec ID                                 : S_VOBSUB

Codec ID/Info                            : Picture based subtitle format used on DVDs

Duration                                 : 2 h 22 min

Bit rate                                 : 6 902 b/s

Count of elements                        : 1196

Stream size                              : 7.04 MiB (0%)

Language                                 : Portuguese

Default                                  : No

Forced                                   : No

Subtitle #3
ID                                       : 6

Format                                   : VobSub

Muxing mode                              : zlib

Codec ID                                 : S_VOBSUB

Codec ID/Info                            : Picture based subtitle format used on DVDs

Duration                                 : 2 h 22 min

Bit rate                                 : 6 773 b/s

Count of elements                        : 1197

Stream size                              : 6.91 MiB (0%)

Language                                 : Danish

Default                                  : No

Forced                                   : No

Subtitle #4
ID                                       : 7

Format                                   : VobSub

Muxing mode                              : zlib

Codec ID                                 : S_VOBSUB

Codec ID/Info                            : Picture based subtitle format used on DVDs

Duration                                 : 2 h 22 min

Bit rate                                 : 7 585 b/s

Count of elements                        : 1191

Stream size                              : 7.74 MiB (0%)

Language                                 : Finnish

Default                                  : No

Forced                                   : No

Subtitle #5
ID                                       : 8

Format                                   : VobSub

Muxing mode                              : zlib

Codec ID                                 : S_VOBSUB

Codec ID/Info                            : Picture based subtitle format used on DVDs

Duration                                 : 2 h 22 min

Bit rate                                 : 7 268 b/s

Count of elements                        : 1203

Stream size                              : 7.42 MiB (0%)

Language                                 : French

Default                                  : No

Forced                                   : No

Subtitle #6
ID                                       : 9

Format                                   : VobSub

Muxing mode                              : zlib

Codec ID                                 : S_VOBSUB

Codec ID/Info                            : Picture based subtitle format used on DVDs

Duration                                 : 2 h 22 min

Bit rate                                 : 8 087 b/s

Count of elements                        : 1238

Stream size                              : 8.25 MiB (0%)

Language                                 : German

Default                                  : No

Forced                                   : No

Subtitle #7
ID                                       : 10

Format                                   : VobSub

Muxing mode                              : zlib

Codec ID                                 : S_VOBSUB

Codec ID/Info                            : Picture based subtitle format used on DVDs

Duration                                 : 2 h 20 min

Bit rate                                 : 195 b/s

Count of elements                        : 26

Stream size                              : 201 KiB (0%)

Language                                 : German

Default                                  : No

Forced                                   : No

Subtitle #8
ID                                       : 11

Format                                   : VobSub

Muxing mode                              : zlib

Codec ID                                 : S_VOBSUB

Codec ID/Info                            : Picture based subtitle format used on DVDs

Duration                                 : 2 h 22 min

Bit rate                                 : 8 370 b/s

Count of elements                        : 1487

Stream size                              : 8.54 MiB (0%)

Language                                 : Spanish

Default                                  : No

Forced                                   : No

Subtitle #9
ID                                       : 12

Format                                   : VobSub

Muxing mode                              : zlib

Codec ID                                 : S_VOBSUB

Codec ID/Info                            : Picture based subtitle format used on DVDs

Duration                                 : 2 h 22 min

Bit rate                                 : 6 319 b/s

Count of elements                        : 1143

Stream size                              : 6.45 MiB (0%)

Language                                 : Dutch

Default                                  : No

Forced                                   : No

Subtitle #10
ID                                       : 13

Format                                   : VobSub

Muxing mode                              : zlib

Codec ID                                 : S_VOBSUB

Codec ID/Info                            : Picture based subtitle format used on DVDs

Duration                                 : 2 h 22 min

Bit rate                                 : 7 005 b/s

Count of elements                        : 1191

Stream size                              : 7.15 MiB (0%)

Language                                 : Norwegian Bokmal

Default                                  : No

Forced                                   : No

Subtitle #11
ID                                       : 14

Format                                   : VobSub

Muxing mode                              : zlib

Codec ID                                 : S_VOBSUB

Codec ID/Info                            : Picture based subtitle format used on DVDs

Duration                                 : 2 h 22 min

Bit rate                                 : 6 388 b/s

Count of elements                        : 1197

Stream size                              : 6.52 MiB (0%)

Language                                 : Swedish

Default                                  : No

Forced                                   : No

Subtitle #12
ID                                       : 15

Format                                   : VobSub

Muxing mode                              : zlib

Codec ID                                 : S_VOBSUB

Codec ID/Info                            : Picture based subtitle format used on DVDs

Duration                                 : 2 h 24 min

Bit rate                                 : 13.2 kb/s

Count of elements                        : 1489

Stream size                              : 13.7 MiB (1%)

Language                                 : English

Default                                  : No

Forced                                   : No

Subtitle #13
ID                                       : 16

Format                                   : VobSub

Muxing mode                              : zlib

Codec ID                                 : S_VOBSUB

Codec ID/Info                            : Picture based subtitle format used on DVDs

Duration                                 : 2 h 24 min

Bit rate                                 : 11.8 kb/s

Count of elements                        : 1494

Stream size                              : 12.2 MiB (1%)

Language                                 : Danish

Default                                  : No

Forced                                   : No

Subtitle #14
ID                                       : 17

Format                                   : VobSub

Muxing mode                              : zlib

Codec ID                                 : S_VOBSUB

Codec ID/Info                            : Picture based subtitle format used on DVDs

Duration                                 : 2 h 24 min

Bit rate                                 : 11.4 kb/s

Count of elements                        : 1466

Stream size                              : 11.8 MiB (1%)

Language                                 : Finnish

Default                                  : No

Forced                                   : No

Subtitle #15
ID                                       : 18

Format                                   : VobSub

Muxing mode                              : zlib

Codec ID                                 : S_VOBSUB

Codec ID/Info                            : Picture based subtitle format used on DVDs

Duration                                 : 2 h 24 min

Bit rate                                 : 11.1 kb/s

Count of elements                        : 1418

Stream size                              : 11.5 MiB (1%)

Language                                 : French

Default                                  : No

Forced                                   : No

Subtitle #16
ID                                       : 19

Format                                   : VobSub

Muxing mode                              : zlib

Codec ID                                 : S_VOBSUB

Codec ID/Info                            : Picture based subtitle format used on DVDs

Duration                                 : 2 h 24 min

Bit rate                                 : 11.6 kb/s

Count of elements                        : 1399

Stream size                              : 12.0 MiB (1%)

Language                                 : German

Default                                  : No

Forced                                   : No

Subtitle #17
ID                                       : 20

Format                                   : VobSub

Muxing mode                              : zlib

Codec ID                                 : S_VOBSUB

Codec ID/Info                            : Picture based subtitle format used on DVDs

Duration                                 : 2 h 24 min

Bit rate                                 : 10.1 kb/s

Count of elements                        : 1309

Stream size                              : 10.5 MiB (1%)

Language                                 : Dutch

Default                                  : No

Forced                                   : No

Subtitle #18
ID                                       : 21

Format                                   : VobSub

Muxing mode                              : zlib

Codec ID                                 : S_VOBSUB

Codec ID/Info                            : Picture based subtitle format used on DVDs

Duration                                 : 2 h 24 min

Bit rate                                 : 10.5 kb/s

Count of elements                        : 1515

Stream size                              : 10.8 MiB (1%)

Language                                 : Norwegian Bokmal

Default                                  : No

Forced                                   : No

Subtitle #19
ID                                       : 22

Format                                   : VobSub

Muxing mode                              : zlib

Codec ID                                 : S_VOBSUB

Codec ID/Info                            : Picture based subtitle format used on DVDs

Duration                                 : 2 h 24 min

Bit rate                                 : 11.0 kb/s

Count of elements                        : 1511

Stream size                              : 11.4 MiB (1%)

Language                                 : Swedish

Default                                  : No

Forced                                   : No

Subtitle #20
ID                                       : 23

Format                                   : UTF-8

Codec ID                                 : S_TEXT/UTF8

Codec ID/Info                            : UTF-8 Plain Text

Duration                                 : 2 h 23 min

Bit rate                                 : 58 b/s

Count of elements                        : 1402

Stream size                              : 61.9 KiB (0%)

Language                                 : Arabic

Default                                  : No

Forced                                   : No

Subtitle #21
ID                                       : 24

Format                                   : UTF-8

Codec ID                                 : S_TEXT/UTF8

Codec ID/Info                            : UTF-8 Plain Text

Duration                                 : 2 h 17 min

Bit rate                                 : 41 b/s

Count of elements                        : 1206

Stream size                              : 41.3 KiB (0%)

Language                                 : Portuguese

Default                                  : No

Forced                                   : No

Subtitle #22
ID                                       : 25

Format                                   : ASS

Codec ID                                 : S_TEXT/ASS

Codec ID/Info                            : Advanced Sub Station Alpha

Duration                                 : 2 h 17 min

Bit rate                                 : 288 b/s

Count of elements                        : 1405

Compression mode                         : Lossless

Stream size                              : 290 KiB (0%)

Language                                 : Chinese

Default                                  : No

Forced                                   : No

Subtitle #23
ID                                       : 26

Format                                   : UTF-8

Codec ID                                 : S_TEXT/UTF8

Codec ID/Info                            : UTF-8 Plain Text

Duration                                 : 2 h 17 min

Bit rate                                 : 71 b/s

Count of elements                        : 1401

Stream size                              : 71.7 KiB (0%)

Language                                 : Greek

Default                                  : No

Forced                                   : No

Subtitle #24
ID                                       : 27

Format                                   : UTF-8

Codec ID                                 : S_TEXT/UTF8

Codec ID/Info                            : UTF-8 Plain Text

Duration                                 : 2 h 19 min

Bit rate                                 : 67 b/s

Count of elements                        : 1379

Stream size                              : 69.3 KiB (0%)

Language                                 : Hebrew

Default                                  : No

Forced                                   : No

Subtitle #25
ID                                       : 28

Format                                   : UTF-8

Codec ID                                 : S_TEXT/UTF8

Codec ID/Info                            : UTF-8 Plain Text

Duration                                 : 2 h 16 min

Bit rate                                 : 73 b/s

Count of elements                        : 1370

Stream size                              : 73.9 KiB (0%)

Language                                 : Persian

Default                                  : No

Forced                                   : No

Subtitle #26
ID                                       : 29

Format                                   : UTF-8

Codec ID                                 : S_TEXT/UTF8

Codec ID/Info                            : UTF-8 Plain Text

Duration                                 : 2 h 22 min

Bit rate                                 : 39 b/s

Count of elements                        : 1196

Stream size                              : 41.4 KiB (0%)

Language                                 : Portuguese

Default                                  : No

Forced                                   : No

Subtitle #27
ID                                       : 30

Format                                   : UTF-8

Codec ID                                 : S_TEXT/UTF8

Codec ID/Info                            : UTF-8 Plain Text

Duration                                 : 2 h 23 min

Bit rate                                 : 42 b/s

Count of elements                        : 1204

Stream size                              : 44.8 KiB (0%)

Language                                 : Turkish

Default                                  : No

Forced                                   : No

Subtitle #28
ID                                       : 31

Format                                   : UTF-8

Codec ID                                 : S_TEXT/UTF8

Codec ID/Info                            : UTF-8 Plain Text

Duration                                 : 2 h 16 min

Bit rate                                 : 57 b/s

Count of elements                        : 1385

Stream size                              : 57.3 KiB (0%)

Language                                 : Vietnamese

Default                                  : No

Forced                                   : No

Menu
00:00:00.000                             : en:Chapter 01

00:03:42.972                             : en:Chapter 02

00:04:31.479                             : en:Chapter 03

00:09:29.694                             : en:Chapter 04

00:12:13.399                             : en:Chapter 05

00:15:01.442                             : en:Chapter 06

00:16:33.701                             : en:Chapter 07

00:24:27.924                             : en:Chapter 08

00:26:31.756                             : en:Chapter 09

00:31:07.740                             : en:Chapter 10

00:33:12.824                             : en:Chapter 11

00:35:53.151                             : en:Chapter 12

00:37:43.261                             : en:Chapter 13

00:43:32.735                             : en:Chapter 14

00:46:11.268                             : en:Chapter 15

00:49:15.285                             : en:Chapter 16

00:51:46.812                             : en:Chapter 17

00:55:52.057                             : en:Chapter 18

00:59:33.319                             : en:Chapter 19

01:02:51.434                             : en:Chapter 20

01:07:33.257                             : en:Chapter 21

01:11:03.634                             : en:Chapter 22

01:14:12.823                             : en:Chapter 23

01:17:08.874                             : en:Chapter 24

01:19:05.699                             : en:Chapter 25

01:24:41.034                             : en:Chapter 26

01:26:19.507                             : en:Chapter 27

01:28:02.860                             : en:Chapter 28

01:29:09.927                             : en:Chapter 29

01:34:12.772                             : en:Chapter 30

01:37:18.707                             : en:Chapter 31

01:39:29.254                             : en:Chapter 32

01:42:47.452                             : en:Chapter 33

01:46:07.444                             : en:Chapter 34

01:49:57.716                             : en:Chapter 35

01:54:04.796                             : en:Chapter 36

01:56:30.024                             : en:Chapter 37

01:58:32.897                             : en:Chapter 38

02:05:23.807                             : en:Chapter 39

02:08:09.181                             : en:Chapter 40

02:10:50.175                             : en:Chapter 41

02:12:42.913                             : en:Chapter 42

02:16:18.461                             : en:Chapter 43

02:19:09.966                             : en:Chapter 44

Source Information

Code:

Release:
Alien³ (1992) DC BluRay.2160p.AI.DTS.UTR.mkv (27.06 GBs)

Code:


Note From UTR
Whilst we are happy for our releases to be re-posted on a platform we aren’t on, please do so in an ‘as-is’ format. We ask that you do not create a new torrent, include all descriptions you see above including the UTR logo, tags, notes and screenshots. If you’d like to become a permanent poster on a website we don’t post to, feel free to get in contact with a UTR member.

If possible please donate for seedboxes.

BTC – 1QA5fum5AyXvWzdVCkQzUNvw3Ef15fHRaR

Monero – 8AuksPSzY7fen3HHT1a2342PgVy4J93MKfXG3AAcayV76miTyJ3sNfn38srwrpLirGfeR5DwhTL8GW8pdQgT7bZcJ25ynMx

Dash – Xh4mNs6uwZdpCEX2HSEVwGvPD7yKxZ1Ccd

Ethereum – 0x51c06c94e74c16735a7a6e841ad29fc90a84eb1f

Alien³ (1992) DC (1080p BluRaDownload Torrent Magnet

#Alien³ #1080p #BluRa