Alice In Wonderland 1951 x264 Full Torrent Magnet Download

Download Torrent Alice In Wonderland 1951 x264 Movie Full in HD Result. Movie Alice In Wonderland 1951 x264 Torrent Download full. Movie Alice In Wonderland 1951 x264 torrent Magnet Download Full. Alice In Wonderland 1951 x264 Full Movie Torrent Download And Magnet Download For your PC And Mobiles. Latest Movie Alice In Wonderland 1951 x264 Download Link In Bottom.

Torrent And Magnet Links Below

Greets

Admin , Moderator , Noir, Ex0duS5150, theeshiznit, MisterQ, UserHEVC, miok, Silmarillion, Mr. Blue, MaDHeX and many more ;

Alice In Wonderland 1951 x264 720p Esub BluRay Dual Audio English Hindi THE GOPI SAHI

Format : Matroska

Format version : Version 4

File size : 589 MiB

Duration : 1 h 15 min

Overall bit rate : 1 095 kb/s

Movie name : Alice In Wonderland 1951 GOPI SAHI

Video

ID : 1

Format : AVC

Format/Info : Advanced Video Codec

Format profile : [email protected]
Format settings : CABAC / 5 Ref Frames

Format settings, CABAC : Yes

Format settings, Reference fra : 5 frames

Codec ID : V_MPEG4/ISO/AVC

Duration : 1 h 15 min

Bit rate : 899 kb/s

Width : 1 280 pixels

Height : 970 pixels

Display aspect ratio : 4:3

Frame rate mode : Constant

Frame rate : 23.976 (24000/1001) FPS

Color space : YUV

Chroma subsampling : 4:2:0

Bit depth : 8 bits

Scan type : Progressive

Bits/(Pixel*Frame) : 0.030

Stream size : 484 MiB (82%)

Title : GOPI SAHI

Writing library : x264 core 157 r2935 545de2f

Audio #1

ID : 2

Format : AAC LC

Format/Info : Advanced Audio Codec Low Complexity

Codec ID : A_AAC-2

Duration : 1 h 15 min

Bit rate : 96.0 kb/s

Channel(s) : 2 channels

Channel layout : L R

Sampling rate : 48.0 kHz

Frame rate : 46.875 FPS (1024 SPF)

Compression mode : Lossy

Delay relative to video : -104 ms

Stream size : 51.6 MiB (9%)

Title : GOP ISAHI

Language : Hindi

Default : Yes

Forced : No

Audio #2

ID : 3

Format : AAC LC

Format/Info : Advanced Audio Codec Low Complexity

Codec ID : A_AAC-2

Duration : 1 h 15 min

Bit rate : 96.0 kb/s

Channel(s) : 2 channels

Channel layout : L R

Sampling rate : 48.0 kHz

Frame rate : 46.875 FPS (1024 SPF)

Compression mode : Lossy

Delay relative to video : -104 ms

Stream size : 51.9 MiB (9%)

Title : GOPI SAHI

Language : English

Default : No

Forced : No

Text

ID : 4

Format : UTF-8

Codec ID : S_TEXT/UTF8

Codec ID/Info : UTF-8 Plain Text

Duration : 1 h 14 min

Bit rate : 64 b/s

Count of elements : 1078

Stream size : 35.6 KiB (0%)

Title : GOPI SAHI

Language : English

Default : Yes

Forced : No

Alice In Wonderland 1951 x264Download Torrent Magnet

#Alice #Wonderland #x264