Agnes.Joy.2019.720p.HDRip.x26 Full Torrent Magnet Download

Download Torrent Agnes.Joy.2019.720p.HDRip.x26 Movie Full in HD Result. Movie Agnes.Joy.2019.720p.HDRip.x26 Torrent Download full. Movie Agnes.Joy.2019.720p.HDRip.x26 torrent Magnet Download Full. Agnes.Joy.2019.720p.HDRip.x26 Full Movie Torrent Download And Magnet Download For your PC And Mobiles. Latest Movie Agnes.Joy.2019.720p.HDRip.x26 Download Link In Bottom.

Torrent And Magnet Links Below

Release: Agnes.Joy.2019.720p.HDRip.x264.AAC.HORiZON-ArtSubs

IMDB: https://www.imdb.com/title/tt9249886

Subtitles: German, Russian and Icelandic (soft)

Plot: Rannveig is experiencing burnout in all aspects of her mundane suburban life. She’s stuck with a job she hates and a marriage that is slowly dying. On top of that, she’s constantly fighting with her rebellious daughter, Agnes, and can’t face the possibility of Agnes growing up and leaving her behind. When a new neighbor, Hreinn, shows up at their doorstep, Rannveig and family face new challenges that are beyond their control. Official submission of Iceland for the ‘Best International Feature Film’ category of the 93rd Academy Awards in 2021.

General

Complete name               : Agnes.Joy.2019.720p.HDRip.x264.AAC.HORiZON-ArtSubs.mkv

Format                      : Matroska

Format version              : Version 4

File size                   : 2.00 GiB

Duration                    : 1 h 28 min

Overall bit rate            : 3 224 kb/s

Encoded date                : UTC 2021-01-18 21:01:29

Writing application         : mkvmerge v50.0.0 (‘Awakenings’) 64-bit

Writing library             : libebml v1.4.0 + libmatroska v1.6.2

Video

ID                          : 1

Format                      : AVC

Format/Info                 : Advanced Video Codec

Format profile              : [email protected]
Format settings             : CABAC / 5 Ref Frames

Format settings, CABAC      : Yes

Format settings, Reference  : 5 frames

Codec ID                    : V_MPEG4/ISO/AVC

Duration                    : 1 h 28 min

Bit rate                    : 3 082 kb/s

Width                       : 1 280 pixels

Height                      : 536 pixels

Display aspect ratio        : 2.40:1

Frame rate mode             : Constant

Frame rate                  : 25.000 FPS

Color space                 : YUV

Chroma subsampling          : 4:2:0

Bit depth                   : 8 bits

Scan type                   : Progressive

Bits/(Pixel*Frame)          : 0.180

Stream size                 : 1.91 GiB (96%)

Writing library             : x264 core 155 r2917 0a84d98

Encoding settings           : cabac=1 / ref=5 / deblock=1:-1:-1 / analyse=0x3:0x113 / me=hex / subme=8 / psy=1 / psy_rd=1,00:0,15 / mixed_ref=1 / me_range=16 / chroma_me=1 / trellis=2 / 8x8dct=1 / cqm=0 / deadzone=21,11 / fast_pskip=1 / chroma_qp_offset=-3 / threads=6 / lookahead_threads=1 / sliced_threads=0 / nr=0 / decimate=1 / interlaced=0 / bluray_compat=0 / constrained_intra=0 / bframes=3 / b_pyramid=2 / b_adapt=1 / b_bias=0 / direct=3 / weightb=1 / open_gop=0 / weightp=2 / keyint=250 / keyint_min=25 / scenecut=40 / intra_refresh=0 / rc_lookahead=50 / rc=crf / mbtree=1 / crf=15,0 / qcomp=0,60 / qpmin=0 / qpmax=69 / qpstep=4 / vbv_maxrate=62500 / vbv_bufsize=78125 / crf_max=0,0 / nal_hrd=none / filler=0 / ip_ratio=1,40 / aq=1:1,00

Default                     : Yes

Forced                      : No

Color range                 : Limited

Color primaries             : BT.709

Transfer characteristics    : BT.709

Matrix coefficients         : BT.709

Audio

ID                          : 2

Format                      : AAC LC

Format/Info                 : Advanced Audio Codec Low Complexity

Codec ID                    : A_AAC-2

Duration                    : 1 h 28 min

Bit rate                    : 140 kb/s

Channel(s)                  : 2 channels

Channel layout              : L R

Sampling rate               : 48.0 kHz

Frame rate                  : 46.875 FPS (1024 SPF)

Compression mode            : Lossy

Delay relative to video     : 10 ms

Stream size                 : 88.5 MiB (4%)

Language                    : Icelandic

Default                     : Yes

Forced                      : No

Text #1

ID                          : 3

Format                      : UTF-8

Codec ID                    : S_TEXT/UTF8

Codec ID/Info               : UTF-8 Plain Text

Duration                    : 1 h 21 min

Bit rate                    : 51 b/s

Count of elements           : 766

Stream size                 : 30.7 KiB (0%)

Language                    : German

Default                     : Yes

Forced                      : No

Text #2

ID                          : 4

Format                      : UTF-8

Codec ID                    : S_TEXT/UTF8

Codec ID/Info               : UTF-8 Plain Text

Duration                    : 1 h 21 min

Bit rate                    : 91 b/s

Count of elements           : 966

Stream size                 : 54.5 KiB (0%)

Language                    : Russian

Default                     : No

Forced                      : No

Text #3

ID                          : 5

Format                      : UTF-8

Codec ID                    : S_TEXT/UTF8

Codec ID/Info               : UTF-8 Plain Text

Duration                    : 1 h 21 min

Bit rate                    : 61 b/s

Count of elements           : 883

Stream size                 : 36.4 KiB (0%)

Language                    : Icelandic

Default                     : No

Forced                      : No

SCREENSHOTS:





Agnes.Joy.2019.720p.HDRip.x26Download Torrent Magnet

#AgnesJoy2019720pHDRipx26