Agent Sai Srinivasa Athreya ( Full Torrent Magnet Download

Download Torrent Agent Sai Srinivasa Athreya ( Movie Full in HD Result. Movie Agent Sai Srinivasa Athreya ( Torrent Download full. Movie Agent Sai Srinivasa Athreya ( torrent Magnet Download Full. Agent Sai Srinivasa Athreya ( Full Movie Torrent Download And Magnet Download For your PC And Mobiles. Latest Movie Agent Sai Srinivasa Athreya ( Download Link In Bottom.

Torrent And Magnet Links Below


Agent Sai Srinivasa Athreya (2019) Multi | IMDb (8.4/10)

Original Audio: Telugu | Dubbed: Hindi








Source Information

Code:

Release:

Agent.Sai.Srinivasa.Athreya.2019.Telugu.2160p.AMZN.WEB-DL.DDP.5.1.x265-NbT (9.4GB) [Video+Telugu.Audio+Subtitles]
Agent.Sai.Srinivasa.Athreya.(2019).True.WEB-DL.1080p.AVC.[DualAudio]-BunnyJMB (8.4GB) [Hindi.Audio]

Media Information

Code:

General
Complete name : Agent Sai Srinivasa Athreya (2019) Multi (1080p WEBRip x265 10bit AC3) – [Musafirboy].mkv

Format : Matroska

Format version : Version 4

File size : 2.27 GiB

Duration : 2 h 24 min

Overall bit rate : 2 244 kb/s

Encoded date : UTC 2021-01-26 13:29:44

Video
Format : HEVC

Format/Info : High Efficiency Video Coding

Format profile : Main [email protected]@Main

Codec ID : V_MPEGH/ISO/HEVC

Duration : 2 h 24 min

Bit rate : 1 601 kb/s

Width : 1 920 pixels

Height : 800 pixels

Display aspect ratio : 2.40:1

Frame rate mode : Constant

Frame rate : 24.000 FPS

Color space : YUV

Chroma subsampling : 4:2:0

Bit depth : 10 bits
Bits/(Pixel*Frame) : 0.043

Stream size : 1.62 GiB (71%)

Writing library : x265 3.2+9-971180b100f8:[Windows][GCC 9.2.0][64 bit] 10bit

Encoding settings : cpuid=1111039 / frame-threads=4 / numa-pools=24 / wpp / no-pmode / no-pme / no-psnr / no-ssim / log-level=2 / input-csp=1 / input-res=1920×800 / interlace=0 / total-frames=208498 / level-idc=50 / high-tier=1 / uhd-bd=0 / ref=3 / no-allow-non-conformance / no-repeat-headers / annexb / no-aud / no-hrd / info / hash=0 / no-temporal-layers / open-gop / min-keyint=24 / keyint=250 / gop-lookahead=0 / bframes=4 / b-adapt=2 / b-pyramid / bframe-bias=0 / rc-lookahead=20 / lookahead-slices=5 / scenecut=40 / radl=0 / no-splice / no-intra-refresh / ctu=64 / min-cu-size=8 / no-rect / no-amp / max-tu-size=32 / tu-inter-depth=1 / tu-intra-depth=1 / limit-tu=0 / rdoq-level=0 / dynamic-rd=0.00 / no-ssim-rd / signhide / no-tskip / nr-intra=0 / nr-inter=0 / no-constrained-intra / strong-intra-smoothing / max-merge=3 / limit-refs=1 / no-limit-modes / me=1 / subme=5 / merange=57 / temporal-mvp / no-frame-dup / no-hme / weightp / no-weightb / no-analyze-src-pics / deblock=0:0 / sao / no-sao-non-deblock / rd=3 / selective-sao=4 / early-skip / rskip / no-fast-intra / no-tskip-fast / no-cu-lossless / b-intra / no-splitrd-skip / rdpenalty=0 / psy-rd=2.00 / psy-rdoq=0.00 / no-rd-refine / no-lossless / cbqpoffs=0 / crqpoffs=0 / rc=abr / bitrate=1600 / qcomp=0.60 / qpstep=4 / stats-write=0 / stats-read=2 / cplxblur=20.0 / qblur=0.5 / ipratio=1.40 / pbratio=1.30 / aq-mode=2 / aq-strength=1.00 / cutree / zone-count=0 / no-strict-cbr / qg-size=32 / no-rc-grain / qpmax=69 / qpmin=0 / no-const-vbv / sar=0 / overscan=0 / videoformat=5 / range=0 / colorprim=1 / transfer=1 / colormatrix=1 / chromaloc=0 / display-window=0 / cll=0,0 / min-luma=0 / max-luma=1023 / log2-max-poc-lsb=8 / vui-timing-info / vui-hrd-info / slices=1 / no-opt-qp-pps / no-opt-ref-list-length-pps / no-multi-pass-opt-rps / scenecut-bias=0.05 / no-opt-cu-delta-qp / no-aq-motion / no-hdr / no-hdr-opt / no-dhdr10-opt / no-idr-recovery-sei / analysis-reuse-level=5 / scale-factor=0 / refine-intra=0 / refine-inter=0 / refine-mv=1 / refine-ctu-distortion=0 / no-limit-sao / ctu-info=0 / no-lowpass-dct / refine-analysis-type=0 / copy-pic=1 / max-ausize-factor=1.0 / no-dynamic-refine / no-single-sei / no-hevc-aq / no-svt / no-field / qp-adaptation-range=1.00

Color range : Limited

Color primaries : BT.709

Transfer characteristics : BT.709

Matrix coefficients : BT.709

Audio #1
Format : AC-3

Format/Info : Audio Coding 3

Commercial name : Dolby Digital

Codec ID : A_AC3

Duration : 2 h 24 min

Bit rate mode : Constant

Bit rate : 448 kb/s

Channel(s) : 6 channels

Channel layout : L R C LFE Ls Rs

Sampling rate : 48.0 kHz

Frame rate : 31.250 FPS (1536 SPF)

Compression mode : Lossy

Stream size : 464 MiB (20%)

Language : Telugu

Audio #2
Format : AAC LC

Format/Info : Advanced Audio Codec Low Complexity

Codec ID : A_AAC-2

Duration : 2 h 24 min

Bit rate : 192 kb/s

Channel(s) : 2 channels

Channel layout : L R

Sampling rate : 48.0 kHz

Frame rate : 46.875 FPS (1024 SPF)

Compression mode : Lossy

Stream size : 199 MiB (9%)

Language : Hindi

Subtitle #1
Format : UTF-8

Codec ID : S_TEXT/UTF8

Codec ID/Info : UTF-8 Plain Text

Duration : 2 h 21 min

Bit rate : 86 b/s

Count of elements : 2819

Stream size : 89.5 KiB (0%)

Language : English

Subtitle #2
Format : UTF-8

Codec ID : S_TEXT/UTF8

Codec ID/Info : UTF-8 Plain Text

Duration : 2 h 21 min

Bit rate : 200 b/s

Count of elements : 2491

Stream size : 208 KiB (0%)

Language : Hindi

Subtitle #3
Format : UTF-8

Codec ID : S_TEXT/UTF8

Codec ID/Info : UTF-8 Plain Text

Duration : 2 h 21 min

Bit rate : 246 b/s

Count of elements : 2490

Stream size : 256 KiB (0%)

Language : Tamil

Subtitle #4
Format : UTF-8

Codec ID : S_TEXT/UTF8

Codec ID/Info : UTF-8 Plain Text

Duration : 2 h 21 min

Bit rate : 216 b/s

Count of elements : 2569

Stream size : 224 KiB (0%)

Language : Telugu

Agent Sai Srinivasa Athreya (Download Torrent Magnet

#Agent #Sai #Srinivasa #Athreya