Agent Sai Srinivasa Athreya ( Full Torrent Magnet Download

Download Torrent Agent Sai Srinivasa Athreya ( Movie Full in HD Result. Movie Agent Sai Srinivasa Athreya ( Torrent Download full. Movie Agent Sai Srinivasa Athreya ( torrent Magnet Download Full. Agent Sai Srinivasa Athreya ( Full Movie Torrent Download And Magnet Download For your PC And Mobiles. Latest Movie Agent Sai Srinivasa Athreya ( Download Link In Bottom.

Torrent And Magnet Links Below

https://FreshMoviesHD.com

Agent Sai Srinivasa Athreya (2019) UNCUT Dual Audio [Hindi-Telugu] HDRip 500mb — FreshMoviesHD

..:: MEDIA INFO ::..

Format : Matroska

Format version : Version 4 / Version 2

File size : 520 MiB

Duration : 2 h 24 min

Overall bit rate : 502 kb/s

Encoded date : UTC 2021-01-26 04:39:30

Writing application : mkvmerge v42.0.0 (‘Overtime’) 64-bit

Writing library : libebml v1.3.10 + libmatroska v1.5.2

Video

ID : 1

Format : AVC

Format/Info : Advanced Video Codec

Format profile : [email protected]
Format settings, CABAC : Yes

Format settings, RefFrames : 8 frames

Codec ID : V_MPEG4/ISO/AVC

Duration : 2 h 24 min

Bit rate : 412 kb/s

Width : 720 pixels

Height : 300 pixels

Display aspect ratio : 2.40:1

Frame rate mode : Constant

Frame rate : 24.000 FPS

Color space : YUV

Chroma subsampling : 4:2:0

Bit depth : 8 bits

Scan type : Progressive

Bits/(Pixel*Frame) : 0.079

Stream size : 427 MiB (82%)

Writing library : x264 core 142 r2479 dd79a61

Encoding settings : cabac=1 / ref=8 / deblock=1:0:0 / analyse=0x3:0x133 / me=umh / subme=9 / psy=1 / psy_rd=1.00:0.00 / mixed_ref=1 / me_range=16 / chroma_me=1 / trellis=2 / 8x8dct=1 / cqm=0 / deadzone=21,11 / fast_pskip=1 / chroma_qp_offset=-2 / threads=48 / lookahead_threads=2 / sliced_threads=0 / nr=0 / decimate=1 / interlaced=0 / bluray_compat=0 / constrained_intra=0 / bframes=3 / b_pyramid=2 / b_adapt=2 / b_bias=0 / direct=3 / weightb=1 / open_gop=0 / weightp=2 / keyint=240 / keyint_min=24 / scenecut=40 / intra_refresh=0 / rc_lookahead=60 / rc=2pass / mbtree=1 / bitrate=412 / ratetol=1.0 / qcomp=0.60 / qpmin=0 / qpmax=69 / qpstep=4 / cplxblur=20.0 / qblur=0.5 / vbv_maxrate=25000 / vbv_bufsize=31250 / nal_hrd=none / filler=0 / ip_ratio=1.40 / aq=1:1.00

Default : Yes

Forced : No

Color range : Limited

Color primaries : BT.709

Transfer characteristics : BT.709

Matrix coefficients : BT.709

Audio #1

ID : 2

Format : AAC

Format/Info : Advanced Audio Codec

Format profile : HE-AAC / LC

Codec ID : A_AAC

Duration : 2 h 24 min

Bit rate : 56.0 kb/s

Channel(s) : 2 channels

Channel positions : Front: L R

Sampling rate : 48.0 kHz / 24.0 kHz

Frame rate : 23.438 FPS (1024 SPF)

Compression mode : Lossy

Delay relative to video : -105 ms

Stream size : 58.0 MiB (11%)

Language : Hindi

Default : Yes

Forced : No

Audio #2

ID : 3

Format : AAC

Format/Info : Advanced Audio Codec

Format profile : HE-AAC / LC

Codec ID : A_AAC

Duration : 2 h 24 min

Bit rate : 32.0 kb/s

Channel(s) : 2 channels

Channel positions : Front: L R

Sampling rate : 48.0 kHz / 24.0 kHz

Frame rate : 23.438 FPS (1024 SPF)

Compression mode : Lossy

Delay relative to video : -105 ms

Stream size : 33.1 MiB (6%)

Language : Telugu

Default : No

Forced : No

..:: SCREENSHOTS ::..



Agent Sai Srinivasa Athreya (Download Torrent Magnet

#Agent #Sai #Srinivasa #Athreya