About.Cherry.2012.1080p.BluRa Full Torrent Magnet Download

Download Torrent About.Cherry.2012.1080p.BluRa Movie Full in HD Result. Movie About.Cherry.2012.1080p.BluRa Torrent Download full. Movie About.Cherry.2012.1080p.BluRa torrent Magnet Download Full. About.Cherry.2012.1080p.BluRa Full Movie Torrent Download And Magnet Download For your PC And Mobiles. Latest Movie About.Cherry.2012.1080p.BluRa Download Link In Bottom.

Torrent And Magnet Links Below

Quote:

*************************************************************

******************************Thumbnbil:*********************

******************************Screenshots:********************

screenshot 1

screenshot 2

screenshot 3

screenshot 4

screenshot 5

screenshot 6

screenshot 7

screenshot 8

screenshot 9

screenshot 0

******************************************************

18+.About.Cherry.2012.1080p.BluRay.x264.LLG.mp4

Format : MPEG-4

Format profile : Base Media

Codec ID : isom (isom/iso2/avc1/mp41)

File size : 1.30 GiB

Duration : 1 h 42 min

Overall bit rate mode : Variable

Overall bit rate : 1 828 kb/s

Video

ID : 1

Format : AVC

Format/Info : Advanced Video Codec

Format profile : [email protected]
Format settings : CABAC / 1 Ref Frames

Format settings, CABAC : Yes

Format settings, Reference frames : 1 frame

Codec ID : avc1

Codec ID/Info : Advanced Video Coding

Duration : 1 h 42 min

Bit rate mode : Variable

Bit rate : 1 728 kb/s

Maximum bit rate : 1 800 kb/s

Width : 1 920 pixels

Height : 1 080 pixels

Display aspect ratio : 16:9

Frame rate mode : Constant

Frame rate : 23.976 (23976/1000) FPS

Color space : YUV

Chroma subsampling : 4:2:0

Bit depth : 8 bits

Scan type : Progressive

Bits/(Pixel*Frame) : 0.035

Stream size : 1.23 GiB (95%)

Audio

ID : 2

Format : AAC LC

Format/Info : Advanced Audio Codec Low Complexity

Codec ID : mp4a-40-2

Duration : 1 h 42 min

Bit rate mode : Constant

Bit rate : 96.0 kb/s

Channel(s) : 2 channels

Channel layout : L R

Sampling rate : 48.0 kHz

Frame rate : 46.875 FPS (1024 SPF)

Compression mode : Lossy

Stream size : 70.5 MiB (5%)

Language : English

Default : Yes

Alternate group : 1

********************************************************

About.Cherry.2012.1080p.BluRaDownload Torrent Magnet

#AboutCherry20121080pBluRa