A.Sun.2019.1080p.WEB-DL.x264. Full Torrent Magnet Download

Download Torrent A.Sun.2019.1080p.WEB-DL.x264. Movie Full in HD Result. Movie A.Sun.2019.1080p.WEB-DL.x264. Torrent Download full. Movie A.Sun.2019.1080p.WEB-DL.x264. torrent Magnet Download Full. A.Sun.2019.1080p.WEB-DL.x264. Full Movie Torrent Download And Magnet Download For your PC And Mobiles. Latest Movie A.Sun.2019.1080p.WEB-DL.x264. Download Link In Bottom.

Torrent And Magnet Links Below

Release: A.Sun.2019.1080p.WEB-DL.x264.AC3.HORiZON-ArtSubs

IMDB: https://www.imdb.com/title/tt10883506

Subtitle: English (soft)

Plot: A family of four fractures under the weight of unmet expectations, unexpected tragedy, and uncompromising pride. Official submission of Taiwan for the ‘Best International Feature Film’ category of the 93rd Academy Awards in 2021.

Complete name : A.Sun.2019.1080p.WEB-DL.x264.AC3.HORiZON-ArtSubs.mkv

Format : Matroska

Format version : Version 4

File size : 3.22 GiB

Duration : 2 h 36 min

Overall bit rate : 2 949 kb/s

Encoded date : UTC 2021-02-02 16:51:12

Writing application : mkvmerge v50.0.0 (‘Awakenings’) 64-bit

Writing library : libebml v1.4.0 + libmatroska v1.6.2

Video

ID : 1

Format : AVC

Format/Info : Advanced Video Codec

Format profile : [email protected]
Format settings : CABAC / 4 Ref Frames

Format settings, CABAC : Yes

Format settings, Reference : 4 frames

Codec ID : V_MPEG4/ISO/AVC

Duration : 2 h 36 min

Bit rate : 2 500 kb/s

Width : 1 920 pixels

Height : 804 pixels

Display aspect ratio : 2.40:1

Frame rate mode : Constant

Frame rate : 24.000 FPS

Color space : YUV

Chroma subsampling : 4:2:0

Bit depth : 8 bits

Scan type : Progressive

Bits/(Pixel*Frame) : 0.067

Stream size : 2.73 GiB (85%)

Writing library : x264 core 152 r2851M ba24899

Encoding settings : cabac=1 / ref=4 / deblock=1:-1:-1 / analyse=0x3:0x113 / me=umh / subme=9 / psy=1 / psy_rd=1.00:0.15 / mixed_ref=1 / me_range=24 / chroma_me=1 / trellis=2 / 8x8dct=1 / cqm=0 / deadzone=21,11 / fast_pskip=1 / chroma_qp_offset=-3 / threads=16 / lookahead_threads=4 / sliced_threads=0 / nr=0 / decimate=1 / interlaced=0 / bluray_compat=0 / constrained_intra=0 / bframes=3 / b_pyramid=2 / b_adapt=2 / b_bias=0 / direct=3 / weightb=1 / open_gop=0 / weightp=2 / keyint=250 / keyint_min=25 / scenecut=40 / intra_refresh=0 / rc_lookahead=50 / rc=2pass / mbtree=1 / bitrate=2500 / ratetol=1.0 / qcomp=0.60 / qpmin=0 / qpmax=69 / qpstep=4 / cplxblur=20.0 / qblur=0.5 / vbv_maxrate=31250 / vbv_bufsize=31250 / nal_hrd=none / filler=0 / ip_ratio=1.40 / aq=3:1.00

Default : Yes

Forced : No

Audio

ID : 2

Format : AC-3

Format/Info : Audio Coding 3

Commercial name : Dolby Digital

Codec ID : A_AC3

Duration : 2 h 36 min

Bit rate mode : Constant

Bit rate : 448 kb/s

Channel(s) : 6 channels

Channel layout : L R C LFE Ls Rs

Sampling rate : 48.0 kHz

Frame rate : 31.250 FPS (1536 SPF)

Compression mode : Lossy

Stream size : 500 MiB (15%)

Language : Chinese

Service kind : Complete Main

Default : Yes

Forced : No

Text

ID : 3

Format : UTF-8

Codec ID : S_TEXT/UTF8

Codec ID/Info : UTF-8 Plain Text

Duration : 2 h 30 min

Bit rate : 37 b/s

Count of elements : 1681

Stream size : 41.4 KiB (0%)

Language : English

Default : Yes

Forced : No

SCREENSHOTS:





A.Sun.2019.1080p.WEB-DL.x264.Download Torrent Magnet

#ASun20191080pWEBDLx264