A Nice Girl Like You 2020 108 Full Torrent Magnet Download

Download Torrent A Nice Girl Like You 2020 108 Movie Full in HD Result. Movie A Nice Girl Like You 2020 108 Torrent Download full. Movie A Nice Girl Like You 2020 108 torrent Magnet Download Full. A Nice Girl Like You 2020 108 Full Movie Torrent Download And Magnet Download For your PC And Mobiles. Latest Movie A Nice Girl Like You 2020 108 Download Link In Bottom.

Torrent And Magnet Links Below

A Nice Girl Like You 2020 1080p BLURAY REMUX AVC DTS-HD M.A. 4.1 – iCMAL [TGx]

Parents Guide

Jump to: Certification Sex & Nudity (8) Violence & Gore (1) Profanity (0) Alcohol, Drugs & Smoking (0) Frightening & Intense Scenes (0)

Certification

MPAA Rated R for sexual content throughout and language

Certification

Australia:M Germany:12 Switzerland:12 United Kingdom:15 United States:R (certificate #52720)

After being accused of being too inhibited by her ex-boyfriend, a violinist creates a rather wild to-do list that sends her on a whirlwind journey of self-discovery.

Directors: Chris Riedell, Nick Riedell

Writers: Ayn Carrillo Gailey (story by) (as Ayn Carrillo), Andrea Marcellus (screenplay)

Stars: Lucy Hale, Mindy Cohn, Jackie Cruz

Storyline

“A Nice Girl Like You” is a romantic-comedy film starring award-winning actresses Lucy Hale (Pretty Little Liars, Truth or Dare), Mindy Cohn (Consequences, The Facts Of Life), Jackie Cruz (Orange Is The New Black), Australian actor Leonidas Gulaptis (The Answer, Gala and Godfrey), and Adhir Kalyan (Rules of Engagement ). Based on the popular memoir by Ayn Carrillo-Gailey, the story follows Lucy Neal (Hale), a violinist who is thrown for a loop when she is accused of being too inhibited by her ex-boyfriend. In an effort to prove him wrong, Lucy creates a rather wild to-do list that sends her on a whirlwind and surprising journey of self-discovery, friendship, and new love.

DownloadsA Nice Girl Like You 2020 1080p BLURAY REMUX AVC DTS-HD M.A. 4.1 – iCMAL [TGx]A Nice Girl Like You 2020 1080p BLURAY REMUX AVC DTS-HD M.A. 4.1 – iCMAL.mkv

Format : Matroska

Format version : Version 4

File size : 25.2 GiB

Duration : 1 h 34 min

Overall bit rate mode : Variable

Overall bit rate : 38.2 Mb/s

Movie name : A Nice Girl Like You 2020 1080p BLURAY REMUX AVC DTS-HD M.A. 4.1 – iCMAL

Encoded date : UTC 2021-01-31 20:47:40

Writing application : mkvmerge v10.0.0 (‘To Drown In You’) 64bit

Writing library : libebml v1.3.4 + libmatroska v1.4.5

Video

ID : 1

Format : AVC

Format/Info : Advanced Video Codec

Format profile : [email protected]
Format settings : CABAC / 4 Ref Frames

Format settings, CABAC : Yes

Format settings, Reference frames : 4 frames

Codec ID : V_MPEG4/ISO/AVC

Duration : 1 h 34 min

Bit rate mode : Variable

Bit rate : 34.4 Mb/s

Maximum bit rate : 36.0 Mb/s

Width : 1 920 pixels

Height : 1 080 pixels

Display aspect ratio : 16:9

Frame rate mode : Constant

Frame rate : 24.000 FPS

Color space : YUV

Chroma subsampling : 4:2:0

Bit depth : 8 bits

Scan type : Progressive

Bits/(Pixel*Frame) : 0.692

Stream size : 22.7 GiB (90%)

Title : Remux By iCMAL

Default : Yes

Forced : No

Audio

ID : 2

Format : DTS XLL

Format/Info : Digital Theater Systems

Commercial name : DTS-HD Master Audio

Codec ID : A_DTS

Duration : 1 h 34 min

Bit rate mode : Variable

Bit rate : 3 797 kb/s

Channel(s) : 6 channels

Channel layout : C L R Ls Rs LFE

Sampling rate : 48.0 kHz

Frame rate : 93.750 FPS (512 SPF)

Bit depth : 24 bits

Compression mode : Lossless

Stream size : 2.50 GiB (10%)

Title : Remux By iCMAL

Language : English

Default : Yes

Forced : No

A Nice Girl Like You 2020 108Download Torrent Magnet

#Nice #Girl