A Flying Jatt (2016) Hindi 10 Full Torrent Magnet Download

Download Torrent A Flying Jatt (2016) Hindi 10 Movie Full in HD Result. Movie A Flying Jatt (2016) Hindi 10 Torrent Download full. Movie A Flying Jatt (2016) Hindi 10 torrent Magnet Download Full. A Flying Jatt (2016) Hindi 10 Full Movie Torrent Download And Magnet Download For your PC And Mobiles. Latest Movie A Flying Jatt (2016) Hindi 10 Download Link In Bottom.

Torrent And Magnet Links Below

A Flying Jatt (2016) Hindi 1080p JPN 10bit Bluray x265 HEVC DDP 5.1 ~ TombDoc

Code:

Format : Matroska

Format version : Version 4

File size : 4.39 GiB

Duration : 2 h 29 min

Overall bit rate : 4 210 kb/s

Video

ID : 1

Format : HEVC

Format/Info : High Efficiency Video Coding

Format profile : Main [email protected]@Main

Codec ID : V_MPEGH/ISO/HEVC

Duration : 2 h 29 min

Bit rate : 3 400 kb/s

Width : 1 920 pixels

Height : 804 pixels

Display aspect ratio : 2.40:1

Frame rate mode : Constant

Frame rate : 23.976 (24000/1001) FPS

Color space : YUV

Chroma subsampling : 4:2:0

Bit depth : 10 bits

Bits/(Pixel*Frame) : 0.092

Stream size : 3.54 GiB (81%)

Writing library : x265M – 3.4+28-419182243:[Windows][GCC 10.2.0][64 bit] 10bit

Encoding settings : cpuid=1111039 / frame-threads=4 / numa-pools=24 / wpp / no-pmode / no-pme / no-psnr / no-ssim / log-level=2 / input-csp=1 / input-res=1920×804 / interlace=0 / total-frames=214609 / level-idc=0 / high-tier=1 / uhd-bd=0 / ref=5 / no-allow-non-conformance / no-repeat-headers / annexb / no-aud / no-hrd / info / hash=0 / no-temporal-layers / open-gop / min-keyint=23 / keyint=250 / gop-lookahead=0 / bframes=8 / b-adapt=2 / b-pyramid / bframe-bias=0 / rc-lookahead=100 / lookahead-slices=4 / scenecut=40 / hist-scenecut=0 / radl=0 / no-splice / no-intra-refresh / ctu=64 / min-cu-size=8 / rect / amp / max-tu-size=32 / tu-inter-depth=2 / tu-intra-depth=2 / limit-tu=1 / rdoq-level=2 / dynamic-rd=0.00 / ssim-rd / signhide / no-tskip / nr-intra=0 / nr-inter=0 / no-constrained-intra / strong-intra-smoothing / max-merge=5 / limit-refs=3 / limit-modes / me=3 / subme=6 / merange=57 / temporal-mvp / no-frame-dup / no-hme / weightp / no-weightb / no-analyze-src-pics / deblock=0:0 / sao / no-sao-non-deblock / rd=4 / selective-sao=4 / no-early-skip / rskip / no-fast-intra / no-tskip-fast / no-cu-lossless / no-b-intra / no-splitrd-skip / rdpenalty=0 / psy-rd=0.00 / psy-rdoq=2.00 / no-rd-refine / no-lossless / cbqpoffs=0 / crqpoffs=0 / rc=crf / crf=18.0 / qcomp=0.60 / qpstep=4 / stats-write=0 / stats-read=0 / ipratio=1.40 / pbratio=1.30 / aq-mode=4 / aq-strength=1.00 / cutree / zone-count=0 / no-strict-cbr / qg-size=32 / rc-grain / qpmax=69 / qpmin=0 / no-const-vbv / sar=0 / overscan=0 / videoformat=5 / range=0 / colorprim=2 / transfer=2 / colormatrix=2 / chromaloc=0 / display-window=0 / cll=0,0 / min-luma=0 / max-luma=1023 / log2-max-poc-lsb=8 / vui-timing-info / vui-hrd-info / slices=1 / no-opt-qp-pps / no-opt-ref-list-length-pps / no-multi-pass-opt-rps / scenecut-bias=0.05 / hist-threshold=0.03 / no-opt-cu-delta-qp / aq-motion / no-hdr10 / no-hdr10-opt / no-dhdr10-opt / no-idr-recovery-sei / analysis-reuse-level=0 / analysis-save-reuse-level=0 / analysis-load-reuse-level=0 / scale-factor=0 / refine-intra=0 / refine-inter=0 / refine-mv=1 / refine-ctu-distortion=0 / no-limit-sao / ctu-info=0 / no-lowpass-dct / refine-analysis-type=0 / copy-pic=1 / max-ausize-factor=1.0 / no-dynamic-refine / no-single-sei / hevc-aq / no-svt / no-field / qp-adaptation-range=1.00 / no-scenecut-aware-qpconformance-window-offsets / right=0 / bottom=0 / decoder-max-rate=0 / no-vbv-live-multi-pass

Default : Yes

Forced : No

Audio

ID : 2

Format : E-AC-3

Format/Info : Enhanced AC-3

Commercial name : Dolby Digital Plus

Codec ID : A_EAC3

Duration : 2 h 29 min

Bit rate mode : Constant

Bit rate : 768 kb/s

Channel(s) : 6 channels

Channel layout : L R C LFE Ls Rs

Sampling rate : 48.0 kHz

Frame rate : 31.250 FPS (1536 SPF)

Compression mode : Lossy

Stream size : 819 MiB (18%)

Title : Hindi DD+ 5.1 768Kbps ~ TombDoc

Language : Hindi

Service kind : Complete Main

Default : Yes

Forced : Yes

Text

ID : 3

Format : PGS

Muxing mode : zlib

Codec ID : S_HDMV/PGS

Codec ID/Info : Picture based subtitle format used on BDs/HD-DVDs

Duration : 2 h 27 min

Bit rate : 89.1 kb/s

Count of elements : 7279

Stream size : 94.1 MiB (2%)

Title : Japanese BD-PGS

Language : Japanese

Default : No

Forced : No

Menu

00:00:00.000 : en:Chapter 01

00:01:28.130 : en:Chapter 02

00:21:00.551 : en:Chapter 03

00:37:36.254 : en:Chapter 04

00:56:21.920 : en:Chapter 05

01:10:12.834 : en:Chapter 06

01:23:15.532 : en:Chapter 07

01:36:51.055 : en:Chapter 08

01:48:43.934 : en:Chapter 09

02:01:27.530 : en:Chapter 10

02:11:10.196 : en:Chapter 11

Code:

Source: A Flying Jatt • 2016 • BD50 • Untouched JPN BluRay • Space BOX • DRs

EnjOyY…

A Flying Jatt (2016) Hindi 10Download Torrent Magnet

#Flying #Jatt #Hindi