A Flying Jatt 2016 1080p 10bi Full Torrent Magnet Download

Download Torrent A Flying Jatt 2016 1080p 10bi Movie Full in HD Result. Movie A Flying Jatt 2016 1080p 10bi Torrent Download full. Movie A Flying Jatt 2016 1080p 10bi torrent Magnet Download Full. A Flying Jatt 2016 1080p 10bi Full Movie Torrent Download And Magnet Download For your PC And Mobiles. Latest Movie A Flying Jatt 2016 1080p 10bi Download Link In Bottom.

Torrent And Magnet Links Below



General

Unique ID                                : 200604275361694352556820280082191019048 (0x96EAFA640C6A92668F44FB758A82EC28)

Complete name                            : F:EncodeA Flying Jatt 2016 1080p 10bit BluRay Hindi AAC 5.1 x265 HEVC – MoviePirate – Telly.mkv

Format                                   : Matroska

Format version                           : Version 4

File size                                : 2.84 GiB

Duration                                 : 2 h 29 min

Overall bit rate                         : 2 723 kb/s

Movie name                               : MoviePirate – Telly

Encoded date                             : UTC 2021-02-15 11:34:26

Writing application                      : mkvmerge v39.0.0 (‘In The Waiting Line’) 64-bit

Writing library                          : libebml v1.3.9 + libmatroska v1.5.2

Video

ID                                       : 1

Format                                   : HEVC

Format/Info                              : High Efficiency Video Coding

Format profile                           : Main [email protected]@Main

Codec ID                                 : V_MPEGH/ISO/HEVC

Duration                                 : 2 h 29 min

Bit rate                                 : 2 424 kb/s

Width                                    : 1 920 pixels

Height                                   : 800 pixels

Display aspect ratio                     : 2.40:1

Frame rate mode                          : Constant

Frame rate                               : 23.976 (24000/1001) FPS

Color space                              : YUV

Chroma subsampling                       : 4:2:0

Bit depth                                : 10 bits

Bits/(Pixel*Frame)                       : 0.066

Stream size                              : 2.53 GiB (89%)

Title                                    : MoviePirate – Telly

Writing library                          : x265 3.2+9-971180b100f8:[Windows][GCC 9.2.0][64 bit] 10bit

Encoding settings                        : cpuid=1111039 / frame-threads=2 / numa-pools=4 / wpp / no-pmode / no-pme / no-psnr / no-ssim / log-level=2 / input-csp=1 / input-res=1920×800 / interlace=0 / total-frames=214609 / level-idc=0 / high-tier=1 / uhd-bd=0 / ref=2 / no-allow-non-conformance / no-repeat-headers / annexb / no-aud / no-hrd / info / hash=0 / no-temporal-layers / open-gop / min-keyint=23 / keyint=250 / gop-lookahead=0 / bframes=4 / b-adapt=0 / b-pyramid / bframe-bias=0 / rc-lookahead=15 / lookahead-slices=5 / scenecut=40 / radl=0 / no-splice / no-intra-refresh / ctu=64 / min-cu-size=8 / no-rect / no-amp / max-tu-size=32 / tu-inter-depth=1 / tu-intra-depth=1 / limit-tu=0 / rdoq-level=0 / dynamic-rd=0.00 / no-ssim-rd / signhide / no-tskip / nr-intra=0 / nr-inter=0 / no-constrained-intra / strong-intra-smoothing / max-merge=2 / limit-refs=3 / no-limit-modes / me=1 / subme=2 / merange=57 / temporal-mvp / no-frame-dup / no-hme / weightp / no-weightb / no-analyze-src-pics / deblock=0:0 / sao / no-sao-non-deblock / rd=2 / selective-sao=4 / early-skip / rskip / fast-intra / no-tskip-fast / no-cu-lossless / no-b-intra / no-splitrd-skip / rdpenalty=0 / psy-rd=2.00 / psy-rdoq=0.00 / no-rd-refine / no-lossless / cbqpoffs=0 / crqpoffs=0 / rc=abr / bitrate=2400 / qcomp=0.60 / qpstep=4 / stats-write=0 / stats-read=0 / ipratio=1.40 / pbratio=1.30 / aq-mode=2 / aq-strength=1.00 / cutree / zone-count=0 / no-strict-cbr / qg-size=32 / no-rc-grain / qpmax=69 / qpmin=0 / no-const-vbv / sar=0 / overscan=0 / videoformat=5 / range=0 / colorprim=2 / transfer=2 / colormatrix=2 / chromaloc=0 / display-window=0 / cll=0,0 / min-luma=0 / max-luma=1023 / log2-max-poc-lsb=8 / vui-timing-info / vui-hrd-info / slices=1 / no-opt-qp-pps / no-opt-ref-list-length-pps / no-multi-pass-opt-rps / scenecut-bias=0.05 / no-opt-cu-delta-qp / no-aq-motion / no-hdr / no-hdr-opt / no-dhdr10-opt / no-idr-recovery-sei / analysis-reuse-level=5 / scale-factor=0 / refine-intra=0 / refine-inter=0 / refine-mv=1 / refine-ctu-distortion=0 / no-limit-sao / ctu-info=0 / no-lowpass-dct / refine-analysis-type=0 / copy-pic=1 / max-ausize-factor=1.0 / no-dynamic-refine / no-single-sei / no-hevc-aq / no-svt / no-field / qp-adaptation-range=1.00

Default                                  : Yes

Forced                                   : No

Audio

ID                                       : 2

Format                                   : AAC LC SBR

Format/Info                              : Advanced Audio Codec Low Complexity with Spectral Band Replication

Commercial name                          : HE-AAC

Format settings                          : Explicit

Codec ID                                 : A_AAC-2

Duration                                 : 2 h 29 min

Bit rate                                 : 256 kb/s

Channel(s)                               : 6 channels

Channel layout                           : C L R Ls Rs LFE

Sampling rate                            : 48.0 kHz

Frame rate                               : 23.438 FPS (2048 SPF)

Compression mode                         : Lossy

Stream size                              : 273 MiB (9%)

Title                                    : MoviePirate – Telly

Language                                 : Hindi

Default                                  : No

Forced                                   : No

Text

ID                                       : 3

Format                                   : PGS

Muxing mode                              : zlib

Codec ID                                 : S_HDMV/PGS

Codec ID/Info                            : Picture based subtitle format used on BDs/HD-DVDs

Duration                                 : 2 h 27 min

Bit rate                                 : 89.1 kb/s

Count of elements                        : 7279

Stream size                              : 94.1 MiB (3%)

Title                                    : Telly

Language                                 : Japanese

Default                                  : No

Forced                                   : No

Menu

00:00:00.000                             : :Chapter 01

00:01:28.130                             : :Chapter 02

00:21:00.551                             : :Chapter 03

00:37:36.254                             : :Chapter 04

00:56:21.920                             : :Chapter 05

01:10:12.834                             : :Chapter 06

01:23:15.532                             : :Chapter 07

01:36:51.055                             : :Chapter 08

01:48:43.934                             : :Chapter 09

02:01:27.530                             : :Chapter 10

02:11:10.196                             : :Chapter 11











A Flying Jatt 2016 1080p 10biDownload Torrent Magnet

#Flying #Jatt #1080p #10bi