À double tour (1959) DVDrip X Full Torrent Magnet Download

Download Torrent À double tour (1959) DVDrip X Movie Full in HD Result. Movie À double tour (1959) DVDrip X Torrent Download full. Movie À double tour (1959) DVDrip X torrent Magnet Download Full. À double tour (1959) DVDrip X Full Movie Torrent Download And Magnet Download For your PC And Mobiles. Latest Movie À double tour (1959) DVDrip X Download Link In Bottom.

Torrent And Magnet Links Below

IMDB

Code:


General

Complete name : À.double.tour.(1959).DVDrip.Xvid.(1280x774p).AAC.[Borsalino].EN.srt

Format: SubRip

File size: 72.2 KiB

Text

Format: SubRip

Compression mode : Lossless

General

Complete name : À.double.tour.(1959).DVDrip.Xvid.(1280x774p).AAC.[Borsalino].ES.srt

Format: SubRip

File size: 71.8 KiB

Text

Format: SubRip

Compression mode : Lossless

General

Complete name : À.double.tour.(1959).DVDrip.Xvid.(1280x774p).AAC.[Borsalino].FR.srt

Format: SubRip

File size: 76.9 KiB

Text

Format: SubRip

Compression mode : Lossless

General

Complete name : À.double.tour.(1959).DVDrip.Xvid.(1280x774p).AAC.[Borsalino].mkv

Format: Matroska

Format version: Version 4

File size: 1.59 GiB

Duration: 1 h 33 min

Overall bit rate : 2 424 kb/s

Movie name : À.double.tour.(1959).DVDrip.Xvid.(1280x774p).AAC.[Borsalino]
Writing application : mkvmerge v56.1.0 (‘My Friend’) 64-bit

Writing library: libebml v1.4.2 + libmatroska v1.6.4

Video

ID: 1

Format: AVC

Format/Info: Advanced Video Codec

Format profile: [email protected]
Format settings: CABAC / 4 Ref Frames

Format settings, CABAC : Yes

Format settings, Reference frames: 4 frames

Format settings, GOP: M=1, N=30

Codec ID: V_MPEG4/ISO/AVC

Duration: 1 h 33 min

Bit rate: 2 211 kb/s

Width: 1 280 pixels

Height: 774 pixels

Display aspect ratio: 5:3

Frame rate mode: Constant

Frame rate : 29.970 FPS

Color space: YUV

Chroma subsampling: 4:2:0

Bit depth: 8 bits

Scan type: Progressive

Bits/(Pixel*Frame): 0.074

Stream size: 1.45 GiB (91%)

Title: French

Language: French

Default : Yes

Forced: No

Audio

ID: 2

Format: AAC LC

Format/Info: Advanced Audio Codec Low Complexity

Codec ID: A_AAC-2

Duration: 1 h 33 min

Bit rate: 210 kb/s

Channel(s) : 2 channels

Channel layout: L R

Sampling rate : 44.1 kHz

Frame rate : 43.066 FPS (1024 SPF)

Compression mode : Lossy

Stream size: 141 MiB (9%)

Title: French

Language: French

Default : Yes

Forced: No

Spoken language

Subtitles (srt files)










À double tour (1959) DVDrip XDownload Torrent Magnet

#double #tour #DVDrip