A Cure for Wellness – La cura Full Torrent Magnet Download

Download Torrent A Cure for Wellness – La cura Movie Full in HD Result. Movie A Cure for Wellness – La cura Torrent Download full. Movie A Cure for Wellness – La cura torrent Magnet Download Full. A Cure for Wellness – La cura Full Movie Torrent Download And Magnet Download For your PC And Mobiles. Latest Movie A Cure for Wellness – La cura Download Link In Bottom.

Torrent And Magnet Links Below

A Cure for Wellness – La cura del benessere (2016) 720p H264 Ac3 5.1 Ita Eng Sub Ita Eng-MIRCrew


NO FOUND ONLY ORIGINAL RELEASE

My release is always in double track audio italian and Original audio

for select it use VLC or dvd player home

not use wmp

La cura del benessere – A Cure for Wellness (2016)

Quality MIRCrew on HD 720p da 2,8 gb

Titolo originale Haute tension

Lingua originale francese

Paese di produzione Francia

Anno 2003

Durata 91 min

Rapporto 2.35 : 1

Genere orrore

Regia Alexandre Aja

Soggetto Alexandre Aja, Grégory Levasseur

Sceneggiatura Alexandre Aja, Grégory Levasseur

Cécile De France: Marie

Maïwenn Le Besco: Aléx

Philippe Nahon: assassino

Franck Khalfoun: Jimmy

Andrei Finti: padre di Aléx

Oana Pellea: madre di Aléx

Marco Claudiu Pascu: Tom

Jean-Claude de Goros: capitano della polizia

Bogdan Uritescu: poliziotto

Un giovane e ambizioso impiegato viene mandato a recuperare il CEO della società per cui lavora in una struttura europea specializzata nella cura del benessere e situata nelle Alpi svizzere. Una volta a destinazione, scopre però che l’uomo non vuole far ritorno a casa ed è costretto a prolungare il suo soggiorno. Si renderà pian piano conto che nella struttura sta accadendo qualcosa di molto sinistro.

An ambitious young executive is sent to retrieve his company’s CEO from an idyllic but mysterious “wellness center” at a remote location in the Swiss Alps, but soon suspects that the spa’s treatments are not what they seem.

[spoiler]General

General

Complete name : La cura del benessere – A Cure For Wellness (2016) 720p Ac3 5.1 Ita eng Sub Ita Eng-MIRCrewLa cura del benessere – A Cure For Wellness (2016) 720p Ac3 5.1 Ita eng Sub Ita Eng-MIRCrew.mkv

Format : Matroska

Format version : Version 2

File size : 2.80 GiB

Duration : 2h 26mn

Overall bit rate : 2 732 Kbps

Movie name : MIRCrew

Encoded date : UTC 2021-01-11T18:03:12Z

Writing application : mkvmerge v5.8.0 (‘No Sleep / Pillow’) built on Sep 2 2012 15:37:04

Writing library : Lavf55.12.0

Video

ID : 1

Format : AVC

Format/Info : Advanced Video Codec

Format profile : [email protected]
Format settings, CABAC : Yes

Format settings, ReFrames : 4 frames

Codec ID : V_MPEG4/ISO/AVC

Duration : 2h 26mn

Bit rate : 1 900 Kbps

Width : 1 280 pixels

Height : 720 pixels

Display aspect ratio : 16:9

Frame rate : 23.976 fps

Color space : YUV

Chroma subsampling : 4:2:0

Bit depth : 8 bits

Scan type : Progressive

Bits/(Pixel*Frame) : 0.086

Stream size : 1.89 GiB (68%)

Title : MIRCrew

Writing library : x264 core 142 r2479 dd79a61

Encoding settings : cabac=1 / ref=1 / deblock=1:0:0 / analyse=0x1:0x111 / me=hex / subme=2 / psy=1 / psy_rd=1.00:0.00 / mixed_ref=0 / me_range=16 / chroma_me=1 / trellis=0 / 8x8dct=0 / cqm=0 / deadzone=21,11 / fast_pskip=1 / chroma_qp_offset=0 / threads=9 / lookahead_threads=3 / sliced_threads=0 / nr=0 / decimate=1 / interlaced=0 / bluray_compat=0 / constrained_intra=0 / bframes=3 / b_pyramid=2 / b_adapt=1 / b_bias=0 / direct=1 / weightb=1 / open_gop=0 / weightp=1 / keyint=240 / keyint_min=24 / scenecut=40 / intra_refresh=0 / rc_lookahead=10 / rc=abr / mbtree=1 / bitrate=1900 / ratetol=1.0 / qcomp=0.60 / qpmin=0 / qpmax=69 / qpstep=4 / vbv_maxrate=50000 / vbv_bufsize=62500 / nal_hrd=none / filler=0 / ip_ratio=1.40 / aq=1:1.00

Language : Italian

Default : Yes

Forced : No

Color primaries : BT.709-5, BT.1361, IEC 61966-2-4, SMPTE RP177

Transfer characteristics : BT.709-5, BT.1361

Matrix coefficients : BT.709-5, BT.1361, IEC 61966-2-4 709, SMPTE RP177

Audio #1

ID : 2

Format : AC-3

Format/Info : Audio Coding 3

Mode extension : CM (complete main)

Codec ID : A_AC3

Duration : 2h 26mn

Bit rate mode : Constant

Bit rate : 448 Kbps

Channel(s) : 6 channels

Channel positions : Front: L C R, Side: L R, LFE

Sampling rate : 48.0 KHz

Bit depth : 16 bits

Compression mode : Lossy

Delay relative to video : -5ms

Stream size : 470 MiB (16%)

Title : Ita Ac3 5.1

Language : Italian

Default : Yes

Forced : No

Audio #2

ID : 3

Format : AC-3

Format/Info : Audio Coding 3

Mode extension : CM (complete main)

Codec ID : A_AC3

Duration : 2h 26mn

Bit rate mode : Constant

Bit rate : 384 Kbps

Channel(s) : 6 channels

Channel positions : Front: L C R, Side: L R, LFE

Sampling rate : 48.0 KHz

Bit depth : 16 bits

Compression mode : Lossy

Delay relative to video : -5ms

Stream size : 403 MiB (14%)

Title : Eng Ac3 5.1

Language : English

Default : No

Forced : No

Menu

00:00:00.000 : :Chapter 1

00:03:37.217 : :Chapter 2

00:09:18.474 : :Chapter 3

00:13:22.468 : :Chapter 4

00:16:55.806 : :Chapter 5

00:22:50.035 : :Chapter 6

00:27:42.160 : :Chapter 7

00:32:02.045 : :Chapter 8

00:38:23.968 : :Chapter 9

00:44:51.522 : :Chapter 10

00:51:22.329 : :Chapter 11

00:56:50.907 : :Chapter 12

01:01:31.187 : :Chapter 13

01:08:08.417 : :Chapter 14

01:13:12.346 : :Chapter 15

01:17:02.409 : :Chapter 16

01:21:08.572 : :Chapter 17

01:25:17.362 : :Chapter 18

01:29:20.480 : :Chapter 19

01:34:59.402 : :Chapter 20

01:40:19.638 : :Chapter 21

01:43:49.306 : :Chapter 22

01:47:46.918 : :Chapter 23

01:52:30.785 : :Chapter 24

01:56:30.900 : :Chapter 25

02:04:22.246 : :Chapter 26

02:09:17.583 : :Chapter 27

02:19:59.182 : :Chapter 28

[/spoiler]

A Cure for Wellness – La curaDownload Torrent Magnet

#Cure #Wellness #cura