A.Call.to.Spy.2019.1080p.BluR Full Torrent Magnet Download

Download Torrent A.Call.to.Spy.2019.1080p.BluR Movie Full in HD Result. Movie A.Call.to.Spy.2019.1080p.BluR Torrent Download full. Movie A.Call.to.Spy.2019.1080p.BluR torrent Magnet Download Full. A.Call.to.Spy.2019.1080p.BluR Full Movie Torrent Download And Magnet Download For your PC And Mobiles. Latest Movie A.Call.to.Spy.2019.1080p.BluR Download Link In Bottom.

Torrent And Magnet Links Below

https://www.imdb.com/title/tt7698468/

Code:

Video

ID : 1

ID in the original source medium : 4113 (0x1011)

Format : AVC

Format/Info : Advanced Video Codec

Format profile : [email protected]
Format settings : CABAC / 4 Ref Frames

Format settings, CABAC : Yes

Format settings, Reference frames : 4 frames

Codec ID : V_MPEG4/ISO/AVC

Duration : 2 h 4 min

Bit rate mode : Constant

Bit rate : 33.1 Mb/s

Nominal bit rate : 35.0 Mb/s

Width : 1 920 pixels

Height : 1 080 pixels

Display aspect ratio : 16:9

Frame rate mode : Constant

Frame rate : 23.976 (24000/1001) FPS

Color space : YUV

Chroma subsampling : 4:2:0

Bit depth : 8 bits

Scan type : Progressive

Bits/(Pixel*Frame) : 0.665

Stream size : 28.7 GiB (87%)

Language : English

Default : No

Forced : No

Original source medium : Blu-ray

Audio #1

ID : 2

ID in the original source medium : 4352 (0x1100)

Format : DTS XLL

Format/Info : Digital Theater Systems

Commercial name : DTS-HD Master Audio

Codec ID : A_DTS

Duration : 2 h 4 min

Bit rate mode : Variable

Bit rate : 3 038 kb/s

Channel(s) : 6 channels

Channel layout : C L R Ls Rs LFE

Sampling rate : 48.0 kHz

Frame rate : 93.750 FPS (512 SPF)

Bit depth : 24 bits

Compression mode : Lossless

Stream size : 2.64 GiB (8%)

Title : DTS-HD MA 5.1

Language : English

Default : Yes

Forced : No

Original source medium : Blu-ray

Audio #2

ID : 3

ID in the original source medium : 4353 (0x1101)

Format : DTS XLL

Format/Info : Digital Theater Systems

Commercial name : DTS-HD Master Audio

Codec ID : A_DTS

Duration : 2 h 4 min

Bit rate mode : Variable

Bit rate : 1 584 kb/s

Channel(s) : 2 channels

Channel layout : L R

Sampling rate : 48.0 kHz

Frame rate : 93.750 FPS (512 SPF)

Bit depth : 24 bits

Compression mode : Lossless

Stream size : 1.38 GiB (4%)

Title : DTS-HD MA 2.0

Language : English

Default : No

Forced : No

Original source medium : Blu-ray

Audio #3

ID : 4

ID in the original source medium : 4354 (0x1102)

Format : AC-3

Format/Info : Audio Coding 3

Commercial name : Dolby Digital

Codec ID : A_AC3

Duration : 2 h 4 min

Bit rate mode : Constant

Bit rate : 192 kb/s

Channel(s) : 2 channels

Channel layout : L R

Sampling rate : 48.0 kHz

Frame rate : 31.250 FPS (1536 SPF)

Compression mode : Lossy

Stream size : 171 MiB (1%)

Title : DD 2.0

Language : English

Service kind : Complete Main

Default : No

Forced : No

Original source medium : Blu-ray

Text #1

ID : 5

Format : UTF-8

Codec ID : S_TEXT/UTF8

Codec ID/Info : UTF-8 Plain Text

Duration : 1 h 56 min

Bit rate : 40 b/s

Count of elements : 1311

Stream size : 34.8 KiB (0%)

Title : English-SRT

Language : English

Default : Yes

Forced : No

Text #2

ID : 6

ID in the original source medium : 4608 (0x1200)

Format : PGS

Muxing mode : zlib

Codec ID : S_HDMV/PGS

Codec ID/Info : Picture based subtitle format used on BDs/HD-DVDs

Duration : 1 h 57 min

Bit rate : 27.5 kb/s

Count of elements : 2252

Stream size : 23.1 MiB (0%)

Title : English-PGS

Language : English

Default : No

Forced : No

Original source medium : Blu-ray

Text #3

ID : 7

ID in the original source medium : 4609 (0x1201)

Format : PGS

Muxing mode : zlib

Codec ID : S_HDMV/PGS

Codec ID/Info : Picture based subtitle format used on BDs/HD-DVDs

Duration : 1 h 19 min

Bit rate : 4 062 b/s

Count of elements : 242

Stream size : 2.30 MiB (0%)

Title : English-SDH-PGS

Language : English

Default : No

Forced : No

Original source medium : Blu-ray

Menu

00:00:00.000 : en:Chapter 01

00:09:56.887 : en:Chapter 02

00:20:28.852 : en:Chapter 03

00:30:59.858 : en:Chapter 04

00:40:01.107 : en:Chapter 05

00:49:35.389 : en:Chapter 06

01:01:27.809 : en:Chapter 07

01:11:03.133 : en:Chapter 08

01:20:00.295 : en:Chapter 09

01:32:03.100 : en:Chapter 10

01:40:38.198 : en:Chapter 11

01:51:33.478 : en:Chapter 12

02:04:21.287 : en:Chapter 13

A.Call.to.Spy.2019.1080p.BluRDownload Torrent Magnet

#ACalltoSpy20191080pBluR