À bout de souffle (1960) BDRe Full Torrent Magnet Download

Download Torrent À bout de souffle (1960) BDRe Movie Full in HD Result. Movie À bout de souffle (1960) BDRe Torrent Download full. Movie À bout de souffle (1960) BDRe torrent Magnet Download Full. À bout de souffle (1960) BDRe Full Movie Torrent Download And Magnet Download For your PC And Mobiles. Latest Movie À bout de souffle (1960) BDRe Download Link In Bottom.

Torrent And Magnet Links Below

IMDB

Code:


General

Complete name : À.bout.de.souffle.(1960).BDRemux.Criterion.1080p.PCM.[Borsalino].DE.srt

Format : SubRip

File size : 74.0 KiB

Text

Format : SubRip

Compression mode : Lossless

General

Complete name : À.bout.de.souffle.(1960).BDRemux.Criterion.1080p.PCM.[Borsalino].EN.srt

Format : SubRip

File size : 57.3 KiB

Text

Format : SubRip

Compression mode : Lossless

General

Complete name : À.bout.de.souffle.(1960).BDRemux.Criterion.1080p.PCM.[Borsalino].ES.srt

Format : SubRip

File size : 68.7 KiB

Text

Format : SubRip

Compression mode : Lossless

General

Complete name : À.bout.de.souffle.(1960).BDRemux.Criterion.1080p.PCM.[Borsalino].FR.srt

Format : SubRip

File size : 97.5 KiB

Text

Format : SubRip

Compression mode : Lossless

General

Complete name : À.bout.de.souffle.(1960).BDRemux.Criterion.1080p.PCM.[Borsalino].IT.srt

Format : SubRip

File size : 72.8 KiB

Text

Format : SubRip

Compression mode : Lossless

General

Complete name : À.bout.de.souffle.(1960).BDRemux.Criterion.1080p.PCM.[Borsalino].NL.srt

Format : SubRip

File size : 72.8 KiB

Text

Format : SubRip

Compression mode : Lossless

General

Complete name : À.bout.de.souffle.(1960).BDRemux.Criterion.1080p.PCM.[Borsalino].PT.srt

Format : SubRip

File size : 69.3 KiB

Text

Format : SubRip

Compression mode : Lossless

General

Complete name : À.bout.de.souffle.(1960).BDRemux.Criterion.1080p.PCM.[Borsalino].RU.srt

Format : SubRip

File size : 66.7 KiB

Text

Format : SubRip

Compression mode : Lossless

General

Complete name : À.bout.de.souffle.(1960).BDRemux.Criterion.1080p.PCM.[Borsalino].mkv

Format : Matroska

Format version : Version 4

File size : 18.4 GiB

Duration : 1 h 30 min

Overall bit rate mode : Variable

Overall bit rate : 29.1 Mb/s

Movie name : À.bout.de.souffle.(1960).BDRemux.Criterion.1080p.PCM.[Borsalino]
Writing application : mkvmerge v56.1.0 (‘My Friend’) 64-bit

Writing library : libebml v1.4.2 + libmatroska v1.6.4

Video

ID : 1

Format : AVC

Format/Info : Advanced Video Codec

Format profile : [email protected]
Format settings : CABAC / 4 Ref Frames

Format settings, CABAC : Yes

Format settings, Reference frames : 4 frames

Codec ID : V_MPEG4/ISO/AVC

Duration : 1 h 30 min

Bit rate mode : Variable

Bit rate : 28.0 Mb/s

Maximum bit rate : 37.0 Mb/s

Width : 1 920 pixels

Height : 1 080 pixels

Display aspect ratio : 16:9

Frame rate mode : Constant

Frame rate : 23.976 (24000/1001) FPS

Color space : YUV

Chroma subsampling : 4:2:0

Bit depth : 8 bits

Scan type : Progressive

Bits/(Pixel*Frame) : 0.563

Stream size : 17.7 GiB (96%)

Title : French

Language : French

Default : Yes

Forced : No

Color range : Limited

Color primaries : BT.709

Transfer characteristics : BT.709

Matrix coefficients : BT.709

Audio

ID : 2

Format : PCM

Format settings : Little / Signed

Codec ID : A_PCM/INT/LIT

Duration : 1 h 30 min

Bit rate mode : Constant

Bit rate : 1 152 kb/s

Channel(s) : 1 channel

Sampling rate : 48.0 kHz

Frame rate : 200.000 FPS (240 SPF)

Bit depth : 24 bits

Stream size : 745 MiB (4%)

Title : French

Language : French

Default : Yes

Forced : No

Spoken language

Subtitles (srt files)


















À bout de souffle (1960) BDReDownload Torrent Magnet

#bout #souffle #BDRe