7500.2019.iTA-ENG.REPACK.WEBD Full Torrent Magnet Download

Download Torrent 7500.2019.iTA-ENG.REPACK.WEBD Movie Full in HD Result. Movie 7500.2019.iTA-ENG.REPACK.WEBD Torrent Download full. Movie 7500.2019.iTA-ENG.REPACK.WEBD torrent Magnet Download Full. 7500.2019.iTA-ENG.REPACK.WEBD Full Movie Torrent Download And Magnet Download For your PC And Mobiles. Latest Movie 7500.2019.iTA-ENG.REPACK.WEBD Download Link In Bottom.

Torrent And Magnet Links Below

DATI – TRAMA

Germania, 2019

Genere: Thriller

durata 92′

Regia di Patrick Vollrath

Con Joseph Gordon-Levitt, Carlo Kitzlinger, Max Schimmelpfennig, Aylin Tezel, Murathan Muslu, Nino Porzio, Christian Skibinski.

Un Airbus A319 prosegue regolarmente il suo volo da Berlino a Parigi. Il copilota Tobias Ellis si preoccupa affinché tutto proceda nella norma quando improvvisamente un gruppo di uomini, tra cui il diciottenne Vedat, tenta di entrare nella cabina di pilotaggio. Ne consegue una lotta tra equipaggio e terroristi: la porta della cabina di pilotaggio diviene una zona di battaglia e Tobias si troverà nella posizione di dover decidere tra la vita e la morte.

IMMAGINI



REPORT

General

Unique ID : 237307973233053408904447293072051680967 (0xB287DA694AEA9D33CF0B0F34834236C7)

Complete name : D:7500.2019.iTA-ENG.REPACK.WEBDL.2160p.x265-CYBER.mkV

Format : Matroska

Format version : Version 2

File size : 10.4 GiB

Duration : 1 h 32 min

Overall bit rate : 16.1 Mb/s

Movie name : “ENJOY”

Encoded date : UTC 2021-02-20 20:44:10

Writing application : mkvmerge v45.0.0 (‘Heaven in Pennies’) 64-bit

Writing library : libebml v1.3.10 + libmatroska v1.5.2

Cover : Yes

Attachments : small_cover.jpg / small_cover_land.jpg / cover.jpg / cover_land.jpg

Video

ID : 1

Format : HEVC

Format/Info : High Efficiency Video Coding

Format profile : Main [email protected]@Main

HDR format : SMPTE ST 2094 App 4, Version 0

Codec ID : V_MPEGH/ISO/HEVC

Duration : 1 h 32 min

Bit rate : 14.2 Mb/s

Width : 3 840 pixels

Height : 1 600 pixels

Display aspect ratio : 2.40:1

Frame rate mode : Constant

Frame rate : 23.976 (24000/1001) FPS

Standard : NTSC

Color space : YUV

Chroma subsampling : 4:2:0 (Type 2)

Bit depth : 10 bits

Bits/(Pixel*Frame) : 0.096

Stream size : 9.17 GiB (88%)

Language : English

Default : Yes

Forced : No

Color range : Limited

Color primaries : BT.2020

Transfer characteristics : PQ

Matrix coefficients : BT.2020 non-constant

Mastering display color primaries : Display P3

Mastering display luminance : min: 0.0001 cd/m2, max: 1000 cd/m2

Maximum Content Light Level : 139 cd/m2

Maximum Frame-Average Light Level : 1251 cd/m2

Audio #1

ID : 2

Format : E-AC-3

Format/Info : Enhanced AC-3

Commercial name : Dolby Digital Plus

Codec ID : A_EAC3

Duration : 1 h 32 min

Bit rate mode : Constant

Bit rate : 640 kb/s

Channel(s) : 6 channels

Channel layout : L R C LFE Ls Rs

Sampling rate : 48.0 kHz

Frame rate : 31.250 FPS (1536 SPF)

Compression mode : Lossy

Stream size : 425 MiB (4%)

Title : AMZ RESYNC

Language : Italian

Service kind : Complete Main

Default : Yes

Forced : No

Audio #2

ID : 3

Format : AC-3

Format/Info : Audio Coding 3

Commercial name : Dolby Digital

Codec ID : A_AC3

Duration : 1 h 32 min

Bit rate mode : Constant

Bit rate : 640 kb/s

Channel(s) : 6 channels

Channel layout : L R C LFE Ls Rs

Sampling rate : 48.0 kHz

Frame rate : 31.250 FPS (1536 SPF)

Compression mode : Lossy

Stream size : 425 MiB (4%)

Title : AMZ RESYNC

Language : Italian

Service kind : Complete Main

Default : No

Forced : No

Audio #3

ID : 4

Format : E-AC-3

Format/Info : Enhanced AC-3

Commercial name : Dolby Digital Plus

Codec ID : A_EAC3

Duration : 1 h 32 min

Bit rate mode : Constant

Bit rate : 640 kb/s

Channel(s) : 6 channels

Channel layout : L R C LFE Ls Rs

Sampling rate : 48.0 kHz

Frame rate : 31.250 FPS (1536 SPF)

Compression mode : Lossy

Stream size : 425 MiB (4%)

Title : English

Language : English

Service kind : Complete Main

Default : No

Forced : No

Text #1

ID : 5

Format : UTF-8

Codec ID : S_TEXT/UTF8

Codec ID/Info : UTF-8 Plain Text

Duration : 1 h 24 min

Bit rate : 16 b/s

Count of elements : 357

Stream size : 10.4 KiB (0%)

Title : FORCED

Language : Italian

Default : Yes

Forced : No

Text #2

ID : 6

Format : UTF-8

Codec ID : S_TEXT/UTF8

Codec ID/Info : UTF-8 Plain Text

Duration : 1 h 31 min

Bit rate : 47 b/s

Count of elements : 1127

Stream size : 32.2 KiB (0%)

Title : REGOLARI

Language : Italian

Default : No

Forced : No

Text #3

ID : 7

Format : UTF-8

Codec ID : S_TEXT/UTF8

Codec ID/Info : UTF-8 Plain Text

Duration : 1 h 21 min

Bit rate : 18 b/s

Count of elements : 339

Stream size : 11.0 KiB (0%)

Title : FORCED

Language : English

Default : No

Forced : No

Text #4

ID : 8

Format : UTF-8

Codec ID : S_TEXT/UTF8

Codec ID/Info : UTF-8 Plain Text

Duration : 1 h 31 min

Bit rate : 60 b/s

Count of elements : 1288

Stream size : 40.3 KiB (0%)

Title : NON UDENTI

Language : English

Default : No

Forced : No

Menu

00:00:00.000 : en:1. Studio Logo

00:00:55.000 : en:Scene 2

00:03:15.000 : en:3. Title Sequence

00:03:22.000 : en:Scene 4

00:10:35.000 : en:Scene 5

00:16:00.000 : en:Scene 6

00:28:56.000 : en:Scene 7

00:39:27.000 : en:Scene 8

00:43:53.000 : en:Scene 9

00:53:06.000 : en:Scene 10

01:03:30.000 : en:Scene 11

01:10:24.000 : en:Scene 12

01:15:42.000 : en:Scene 13

01:21:22.000 : en:Scene 14

01:25:54.000 : en:15. End Credits

GOOD DOWNLOAD

7500.2019.iTA-ENG.REPACK.WEBDDownload Torrent Magnet

#75002019iTAENGREPACKWEBD