3I 3 Indians 2020 x264 720p W Full Torrent Magnet Download

Download Torrent 3I 3 Indians 2020 x264 720p W Movie Full in HD Result. Movie 3I 3 Indians 2020 x264 720p W Torrent Download full. Movie 3I 3 Indians 2020 x264 720p W torrent Magnet Download Full. 3I 3 Indians 2020 x264 720p W Full Movie Torrent Download And Magnet Download For your PC And Mobiles. Latest Movie 3I 3 Indians 2020 x264 720p W Download Link In Bottom.

Torrent And Magnet Links Below

Greets

Admin , Moderator , Noir, Ex0duS5150, theeshiznit, MisterQ, UserHEVC, miok, Silmarillion, Mr. Blue, MaDHeX and many more ;

3I 3 Indians 2020 x264 720p WebHD Esub Hindi THE GOPI SAHI

Format : Matroska

Format version : Version 4

File size : 849 MiB

Duration : 1 h 59 min

Overall bit rate : 997 kb/s

Movie name : 3I 3 Indians 2020 GOPI SAHI

Encoded date : UTC 2021-03-12 13:16:57

Writing application : mkvmerge v52.0.0 (‘Secret For The Mad’) 64-bit

Writing library : libebml v1.4.1 + libmatroska v1.6.2

Video

ID : 1

Format : AVC

Format/Info : Advanced Video Codec

Format profile : [email protected]
Format settings : CABAC / 5 Ref Frames

Format settings, CABAC : Yes

Format settings, Reference fra : 5 frames

Codec ID : V_MPEG4/ISO/AVC

Duration : 1 h 59 min

Bit rate : 899 kb/s

Width : 1 280 pixels

Height : 544 pixels

Display aspect ratio : 2.35:1

Frame rate mode : Constant

Frame rate : 25.000 FPS

Color space : YUV

Chroma subsampling : 4:2:0

Bit depth : 8 bits

Scan type : Progressive

Bits/(Pixel*Frame) : 0.052

Stream size : 765 MiB (90%)

Title : GOPI SAHI

Writing library : x264 core 157 r2935 545de2f

Audio

ID : 2

Format : AAC LC

Format/Info : Advanced Audio Codec Low Complexity

Codec ID : A_AAC-2

Duration : 1 h 59 min

Bit rate : 96.0 kb/s

Channel(s) : 2 channels

Channel layout : L R

Sampling rate : 48.0 kHz

Frame rate : 46.875 FPS (1024 SPF)

Compression mode : Lossy

Delay relative to video : -101 ms

Stream size : 82.0 MiB (10%)

Title : GOPI SAHI

Language : Hindi

Default : Yes

Forced : No

3I 3 Indians 2020 x264 720p WDownload Torrent Magnet

#Indians #x264 #720p