365.Days.2020.720p.WEBRip.x26 Full Torrent Magnet Download

Download Torrent 365.Days.2020.720p.WEBRip.x26 Movie Full in HD Result. Movie 365.Days.2020.720p.WEBRip.x26 Torrent Download full. Movie 365.Days.2020.720p.WEBRip.x26 torrent Magnet Download Full. 365.Days.2020.720p.WEBRip.x26 Full Movie Torrent Download And Magnet Download For your PC And Mobiles. Latest Movie 365.Days.2020.720p.WEBRip.x26 Download Link In Bottom.

Torrent And Magnet Links Below

Quote:

*****************************************************************

*******************SCREENSHOTS(Click to enlarge)*******************

*******************************MEDIAINFO****************************

18+.365.Days.2020.720p.WEBRip.x264.AAC.With.Sample.LLG.mp4

Format : MPEG-4

Format profile : Base Media

Codec ID : isom (isom/iso2/avc1/mp41)

File size : 847 MiB

Duration : 1 h 53 min

Overall bit rate mode : Variable

Overall bit rate : 1 039 kb/s

Writing application : Lavf57.83.100

Video

ID : 1

Format : AVC

Format/Info : Advanced Video Codec

Format profile : [email protected]
Format settings : CABAC / 1 Ref Frames

Format settings, CABAC : Yes

Format settings, Reference frames : 1 frame

Codec ID : avc1

Codec ID/Info : Advanced Video Coding

Duration : 1 h 53 min

Bit rate mode : Variable

Bit rate : 906 kb/s

Maximum bit rate : 2 700 kb/s

Width : 1 280 pixels

Height : 714 pixels

Display aspect ratio : 16:9

Frame rate mode : Constant

Frame rate : 24.000 FPS

Color space : YUV

Chroma subsampling : 4:2:0

Bit depth : 8 bits

Scan type : Progressive

Bits/(Pixel*Frame) : 0.041

Stream size : 738 MiB (87%)

Codec configuration box : avcC

Audio

ID : 2

Format : AAC LC

Codec ID : mp4a-40-2

Duration : 1 h 53 min

Bit rate mode : Constant

Bit rate : 129 kb/s

Channel(s) : 2 channels

Channel layout : L R

Sampling rate : 48.0 kHz

Frame rate : 46.875 FPS (1024 SPF)

Compression mode : Lossy

Stream size : 105 MiB (12%)

Default : Yes

Alternate group : 1

********************************************************

365.Days.2020.720p.WEBRip.x26Download Torrent Magnet

#365Days2020720pWEBRipx26