30 Minutes or Less (2011) (10 Full Torrent Magnet Download

Download Torrent 30 Minutes or Less (2011) (10 Movie Full in HD Result. Movie 30 Minutes or Less (2011) (10 Torrent Download full. Movie 30 Minutes or Less (2011) (10 torrent Magnet Download Full. 30 Minutes or Less (2011) (10 Full Movie Torrent Download And Magnet Download For your PC And Mobiles. Latest Movie 30 Minutes or Less (2011) (10 Download Link In Bottom.

Torrent And Magnet Links Below

General

Format                                   : Matroska

Format version                           : Version 4

File size                                : 5.97 GiB

Duration                                 : 1 h 23 min

Overall bit rate                         : 10.3 Mb/s

Movie name                               : 30 Minutes or Less (2011) 1080p x265 HEVC 10bit BluRay AC3 5.1 [Prof]
Encoded date                             : UTC 2021-03-16 22:55:50

Writing application                      : mkvmerge v53.0.0 (‘Fool’s Gold’) 64-bit

Writing library                          : libebml v1.4.1 + libmatroska v1.6.2

Video

ID                                       : 1

Format                                   : HEVC

Format/Info                              : High Efficiency Video Coding

Format profile                           : Main [email protected]@Main

Codec ID                                 : V_MPEGH/ISO/HEVC

Duration                                 : 1 h 23 min

Bit rate                                 : 9 561 kb/s

Width                                    : 1 920 pixels

Height                                   : 800 pixels

Display aspect ratio                     : 2.40:1

Frame rate mode                          : Constant

Frame rate                               : 23.976 (24000/1001) FPS

Color space                              : YUV

Chroma subsampling                       : 4:2:0

Bit depth                                : 10 bits

Bits/(Pixel*Frame)                       : 0.260

Stream size                              : 5.55 GiB (93%)

Writing library                          : x265 3.5_RC1+2+23-bd060601e:[Windows][GCC 10.2.0][64 bit] 10bit

Encoding settings                        : cpuid=1111039 / frame-threads=4 / numa-pools=24 / wpp / no-pmode / no-pme / no-psnr / no-ssim / log-level=2 / input-csp=1 / input-res=1920×800 / interlace=0 / total-frames=119473 / level-idc=0 / high-tier=1 / uhd-bd=0 / ref=5 / no-allow-non-conformance / no-repeat-headers / annexb / no-aud / no-hrd / info / hash=0 / no-temporal-layers / open-gop / min-keyint=23 / keyint=250 / gop-lookahead=0 / bframes=8 / b-adapt=2 / b-pyramid / bframe-bias=0 / rc-lookahead=40 / lookahead-slices=1 / scenecut=40 / hist-scenecut=0 / radl=0 / no-splice / no-intra-refresh / ctu=64 / min-cu-size=8 / rect / amp / max-tu-size=32 / tu-inter-depth=3 / tu-intra-depth=3 / limit-tu=4 / rdoq-level=2 / dynamic-rd=0.00 / no-ssim-rd / signhide / no-tskip / nr-intra=0 / nr-inter=0 / no-constrained-intra / strong-intra-smoothing / max-merge=4 / limit-refs=1 / limit-modes / me=3 / subme=4 / merange=57 / temporal-mvp / no-frame-dup / no-hme / weightp / weightb / no-analyze-src-pics / deblock=0:0 / sao / no-sao-non-deblock / rd=6 / selective-sao=4 / no-early-skip / rskip / no-fast-intra / no-tskip-fast / no-cu-lossless / b-intra / no-splitrd-skip / rdpenalty=0 / psy-rd=2.00 / psy-rdoq=1.00 / no-rd-refine / no-lossless / cbqpoffs=0 / crqpoffs=0 / rc=crf / crf=18.0 / qcomp=0.60 / qpstep=4 / stats-write=0 / stats-read=0 / ipratio=1.40 / pbratio=1.30 / aq-mode=3 / aq-strength=1.00 / cutree / zone-count=0 / no-strict-cbr / qg-size=32 / no-rc-grain / qpmax=69 / qpmin=0 / no-const-vbv / sar=0 / overscan=0 / videoformat=5 / range=0 / colorprim=2 / transfer=2 / colormatrix=2 / chromaloc=0 / display-window=0 / cll=0,0 / min-luma=0 / max-luma=1023 / log2-max-poc-lsb=8 / vui-timing-info / vui-hrd-info / slices=1 / no-opt-qp-pps / no-opt-ref-list-length-pps / no-multi-pass-opt-rps / scenecut-bias=0.05 / hist-threshold=0.03 / no-opt-cu-delta-qp / no-aq-motion / no-hdr10 / no-hdr10-opt / no-dhdr10-opt / no-idr-recovery-sei / analysis-reuse-level=0 / analysis-save-reuse-level=0 / analysis-load-reuse-level=0 / scale-factor=0 / refine-intra=0 / refine-inter=0 / refine-mv=1 / refine-ctu-distortion=0 / no-limit-sao / ctu-info=0 / no-lowpass-dct / refine-analysis-type=0 / copy-pic=1 / max-ausize-factor=1.0 / no-dynamic-refine / no-single-sei / no-hevc-aq / no-svt / no-field / qp-adaptation-range=1.00 / scenecut-aware-qp=0conformance-window-offsets / right=0 / bottom=0 / decoder-max-rate=0 / no-vbv-live-multi-pass

Default                                  : Yes

Forced                                   : No

Audio

ID                                       : 2

Format                                   : AC-3

Format/Info                              : Audio Coding 3

Commercial name                          : Dolby Digital

Codec ID                                 : A_AC3

Duration                                 : 1 h 23 min

Bit rate mode                            : Constant

Bit rate                                 : 640 kb/s

Channel(s)                               : 6 channels

Channel layout                           : L R C LFE Ls Rs

Sampling rate                            : 48.0 kHz

Frame rate                               : 31.250 FPS (1536 SPF)

Compression mode                         : Lossy

Stream size                              : 380 MiB (6%)

Language                                 : English

Service kind                             : Complete Main

Default                                  : Yes

Forced                                   : No

Text #1

ID                                       : 3

Format                                   : PGS

Muxing mode                              : zlib

Codec ID                                 : S_HDMV/PGS

Codec ID/Info                            : Picture based subtitle format used on BDs/HD-DVDs

Duration                                 : 1 h 20 min

Bit rate                                 : 56.3 kb/s

Count of elements                        : 2821

Stream size                              : 32.3 MiB (1%)

Language                                 : English

Default                                  : No

Forced                                   : No

Text #2

ID                                       : 4

Format                                   : PGS

Muxing mode                              : zlib

Codec ID                                 : S_HDMV/PGS

Codec ID/Info                            : Picture based subtitle format used on BDs/HD-DVDs

Duration                                 : 1 h 22 min

Bit rate                                 : 45.4 kb/s

Count of elements                        : 3459

Stream size                              : 26.7 MiB (0%)

Title                                    : SDH

Language                                 : English

Default                                  : No

Forced                                   : No

Text #3

ID                                       : 5

Format                                   : PGS

Muxing mode                              : zlib

Codec ID                                 : S_HDMV/PGS

Codec ID/Info                            : Picture based subtitle format used on BDs/HD-DVDs

Duration                                 : 1 h 20 min

Bit rate                                 : 38.2 kb/s

Count of elements                        : 2757

Stream size                              : 22.0 MiB (0%)

Language                                 : French

Default                                  : No

Forced                                   : No

Text #4

ID                                       : 6

Format                                   : PGS

Muxing mode                              : zlib

Codec ID                                 : S_HDMV/PGS

Codec ID/Info                            : Picture based subtitle format used on BDs/HD-DVDs

Duration                                 : 1 h 21 min

Bit rate                                 : 51.0 kb/s

Count of elements                        : 2849

Stream size                              : 29.9 MiB (0%)

Title                                    : Latin American

Language                                 : Spanish
Default                                  : No

Forced                                   : No

Menu

00:00:00.000                             : en:Chapter 1

00:04:02.284                             : en:Chapter 2

00:10:14.322                             : en:Chapter 3

00:15:47.905                             : en:Chapter 4

00:20:26.642                             : en:Chapter 5

00:27:07.000                             : en:Chapter 6

00:30:19.985                             : en:Chapter 7

00:35:03.018                             : en:Chapter 8

00:41:10.927                             : en:Chapter 9

00:45:14.712                             : en:Chapter 10

00:49:54.450                             : en:Chapter 11

00:54:01.822                             : en:Chapter 12

00:58:42.185                             : en:Chapter 13

01:03:39.232                             : en:Chapter 14

01:07:53.778                             : en:Chapter 15

01:14:51.737                             : en:Chapter 16

Source:

Remux 18.32 GB

30 Minutes or Less (2011) (10Download Torrent Magnet

#Minutes