28.Hotel.Rooms.2012.720p.WEBR Full Torrent Magnet Download

Download Torrent 28.Hotel.Rooms.2012.720p.WEBR Movie Full in HD Result. Movie 28.Hotel.Rooms.2012.720p.WEBR Torrent Download full. Movie 28.Hotel.Rooms.2012.720p.WEBR torrent Magnet Download Full. 28.Hotel.Rooms.2012.720p.WEBR Full Movie Torrent Download And Magnet Download For your PC And Mobiles. Latest Movie 28.Hotel.Rooms.2012.720p.WEBR Download Link In Bottom.

Torrent And Magnet Links Below

Quote:

*************************************************************

******************************Thumbnbil:*********************

******************************Screenshots:********************

screenshot 1

screenshot 2

screenshot 3

screenshot 4

screenshot 5

screenshot 6

screenshot 7

screenshot 8

screenshot 9

screenshot 0

******************************************************

18+.28.Hotel.Rooms.2012.720p.WEBRip.x264.LLG.mp4

Format : MPEG-4

Format profile : Base Media

Codec ID : isom (isom/iso2/avc1/mp41)

File size : 835 MiB

Duration : 1 h 22 min

Overall bit rate mode : Variable

Overall bit rate : 1 414 kb/s

Writing application : Lavf58.29.100

Video

ID : 1

Format : AVC

Format/Info : Advanced Video Codec

Format profile : [email protected]
Format settings : CABAC / 1 Ref Frames

Format settings, CABAC : Yes

Format settings, Reference frames : 1 frame

Codec ID : avc1

Codec ID/Info : Advanced Video Coding

Duration : 1 h 22 min

Bit rate mode : Variable

Bit rate : 1 221 kb/s

Maximum bit rate : 3 600 kb/s

Width : 1 280 pixels

Height : 692 pixels

Display aspect ratio : 1.85:1

Frame rate mode : Constant

Frame rate : 23.976 (23976/1000) FPS

Color space : YUV

Chroma subsampling : 4:2:0

Bit depth : 8 bits

Scan type : Progressive

Bits/(Pixel*Frame) : 0.057

Stream size : 720 MiB (86%)

Codec configuration box : avcC

Audio

ID : 2

Format : AAC LC

Codec ID : mp4a-40-2

Duration : 1 h 22 min

Bit rate mode : Variable

Bit rate : 192 kb/s

Channel(s) : 6 channels

Channel layout : C L R Ls Rs LFE

Sampling rate : 48.0 kHz

Frame rate : 46.875 FPS (1024 SPF)

Compression mode : Lossy

Stream size : 112 MiB (13%)

Language : English

Default : Yes

Alternate group : 1

********************************************************

28.Hotel.Rooms.2012.720p.WEBRDownload Torrent Magnet

#28HotelRooms2012720pWEBR