28.Hotel.Rooms.2012.1080p.WEB Full Torrent Magnet Download

Download Torrent 28.Hotel.Rooms.2012.1080p.WEB Movie Full in HD Result. Movie 28.Hotel.Rooms.2012.1080p.WEB Torrent Download full. Movie 28.Hotel.Rooms.2012.1080p.WEB torrent Magnet Download Full. 28.Hotel.Rooms.2012.1080p.WEB Full Movie Torrent Download And Magnet Download For your PC And Mobiles. Latest Movie 28.Hotel.Rooms.2012.1080p.WEB Download Link In Bottom.

Torrent And Magnet Links Below

Quote:

*****************************************************************

*******************SCREENSHOTS(Click to enlarge)*******************

*******************************MEDIAINFO****************************

18+.28.Hotel.Rooms.2012.1080p.WEBRip.x264.LLG.mp4

Format : MPEG-4

Format profile : Base Media

Codec ID : isom (isom/iso2/avc1/mp41)

File size : 1 017 MiB

Duration : 1 h 22 min

Overall bit rate mode : Variable

Overall bit rate : 1 723 kb/s

Writing application : Lavf58.29.100

Video

ID : 1

Format : AVC

Format/Info : Advanced Video Codec

Format profile : [email protected]
Format settings : CABAC / 1 Ref Frames

Format settings, CABAC : Yes

Format settings, Reference frames : 1 frame

Codec ID : avc1

Codec ID/Info : Advanced Video Coding

Duration : 1 h 22 min

Bit rate mode : Variable

Bit rate : 1 530 kb/s

Maximum bit rate : 4 500 kb/s

Width : 1 920 pixels

Height : 1 040 pixels

Display aspect ratio : 1.85:1

Frame rate mode : Constant

Frame rate : 23.976 (23976/1000) FPS

Color space : YUV

Chroma subsampling : 4:2:0

Bit depth : 8 bits

Scan type : Progressive

Bits/(Pixel*Frame) : 0.032

Stream size : 903 MiB (89%)

Codec configuration box : avcC

Audio

ID : 2

Format : AAC LC

Codec ID : mp4a-40-2

Duration : 1 h 22 min

Bit rate mode : Variable

Bit rate : 192 kb/s

Channel(s) : 6 channels

Channel layout : C L R Ls Rs LFE

Sampling rate : 48.0 kHz

Frame rate : 46.875 FPS (1024 SPF)

Compression mode : Lossy

Stream size : 112 MiB (11%)

Language : English

Default : Yes

Alternate group : 1

********************************************************

28.Hotel.Rooms.2012.1080p.WEBDownload Torrent Magnet

#28HotelRooms20121080pWEB