2012 (2009) (1080p BluRay AI Full Torrent Magnet Download

Download Torrent 2012 (2009) (1080p BluRay AI Movie Full in HD Result. Movie 2012 (2009) (1080p BluRay AI Torrent Download full. Movie 2012 (2009) (1080p BluRay AI torrent Magnet Download Full. 2012 (2009) (1080p BluRay AI Full Movie Torrent Download And Magnet Download For your PC And Mobiles. Latest Movie 2012 (2009) (1080p BluRay AI Download Link In Bottom.

Torrent And Magnet Links Below

Media Information
This is something new. A UHD of 2012 has been released. However the quality leaves much to be desired and isn’t convincing. I would normally use the BD and use my new AI inference techniques to produce a sharp clean 4K source. However, this would be considered fake by the internet. I doubled down, and used the AI to render the movie internally into 8K and then back to a 2160p new source. This time convincing where the camera maintains focus.

Media Information

Code:

General
Format                                   : Matroska

Format version                           : Version 4 / Version 2

File size                                : 8.01 GiB

Duration                                 : 2 h 37 min

Overall bit rate                         : 7 266 kb/s

Encoded date                             : UTC 2021-03-11 07:52:05

Writing application                      : mkvmerge v52.0.0 (‘Secret For The Mad’) 64-bit

Writing library                          : libebml v1.4.1 + libmatroska v1.6.2

Cover                                    : Yes

Attachments                              : cover.jpg

Video
ID                                       : 1

Format                                   : HEVC

Format/Info                              : High Efficiency Video Coding

Format profile                           : Main [email protected]@Main

Codec ID                                 : V_MPEGH/ISO/HEVC

Duration                                 : 2 h 37 min

Bit rate                                 : 6 001 kb/s

Width                                    : 3 840 pixels

Height                                   : 1 600 pixels

Display aspect ratio                     : 2.40:1

Frame rate mode                          : Constant

Frame rate                               : 23.976 (24000/1001) FPS

Color space                              : YUV

Chroma subsampling                       : 4:2:0

Bit depth                                : 10 bits

Bits/(Pixel*Frame)                       : 0.041

Stream size                              : 6.62 GiB (83%)

Writing library                          : x265 3.4+70-90fa80a85:[DJATOM’s Mod][Windows][GCC 10.2.1][64 bit] 10bit

Encoding settings                        : cpuid=1111039 / frame-threads=4 / numa-pools=24 / wpp / no-pmode / no-pme / no-psnr / ssim / log-level=2 / input-csp=1 / input-res=3840×1600 / interlace=0 / total-frames=227064 / level-idc=0 / high-tier=1 / uhd-bd=0 / ref=4 / no-allow-non-conformance / no-repeat-headers / annexb / no-aud / no-hrd / info / hash=0 / no-temporal-layers / open-gop / min-keyint=23 / keyint=250 / gop-lookahead=0 / bframes=4 / b-adapt=2 / b-pyramid / bframe-bias=0 / rc-lookahead=25 / lookahead-slices=4 / scenecut=40 / hist-scenecut=0 / radl=0 / no-splice / no-intra-refresh / ctu=64 / min-cu-size=8 / no-rect / no-amp / max-tu-size=32 / tu-inter-depth=1 / tu-intra-depth=1 / limit-tu=0 / rdoq-level=2 / dynamic-rd=0.00 / ssim-rd / signhide / no-tskip / nr-intra=0 / nr-inter=0 / no-constrained-intra / strong-intra-smoothing / max-merge=3 / limit-refs=3 / limit-modes / me=3 / subme=3 / merange=57 / temporal-mvp / no-frame-dup / no-hme / weightp / no-weightb / no-analyze-src-pics / deblock=0:0 / sao / no-sao-non-deblock / rd=4 / selective-sao=4 / early-skip / rskip / no-fast-intra / no-tskip-fast / no-cu-lossless / no-b-intra / splitrd-skip / rdpenalty=0 / psy-rd=0.00 / psy-rdoq=0.00 / no-rd-refine / no-lossless / cbqpoffs=0 / crqpoffs=0 / rc=abr / bitrate=6000 / qcomp=0.60 / qpstep=4 / stats-write=0 / stats-read=2 / cplxblur=20.0 / qblur=0.5 / ipratio=1.40 / pbratio=1.30 / aq-mode=3 / aq-strength=0.40 / cutree / zone-count=0 / no-strict-cbr / qg-size=32 / no-rc-grain / qpmax=69 / qpmin=0 / no-const-vbv / sar=0 / overscan=0 / videoformat=5 / range=0 / colorprim=1 / transfer=1 / colormatrix=1 / chromaloc=0 / display-window=0 / cll=0,0 / min-luma=0 / max-luma=1023 / log2-max-poc-lsb=8 / vui-timing-info / no-vui-hrd-info / slices=1 / no-opt-qp-pps / no-opt-ref-list-length-pps / multi-pass-opt-rps / scenecut-bias=0.05 / hist-threshold=0.01 / no-opt-cu-delta-qp / no-aq-motion / no-hdr10 / no-hdr10-opt / no-dhdr10-opt / no-idr-recovery-sei / analysis-load / analysis-reuse-level=0 / analysis-save-reuse-level=0 / analysis-load-reuse-level=10 / scale-factor=0 / refine-intra=0 / refine-inter=0 / refine-mv=1 / refine-ctu-distortion=0 / no-limit-sao / ctu-info=0 / no-lowpass-dct / refine-analysis-type=0 / copy-pic=1 / max-ausize-factor=1.0 / no-dynamic-refine / no-single-sei / no-hevc-aq / no-svt / no-field / qp-adaptation-range=1.00 / scenecut-aware-qp / scenecut-window=500 / qp-delta-ref=5.000000 / qp-delta-nonref=6.500000conformance-window-offsets / right=0 / bottom=0 / decoder-max-rate=0 / no-vbv-live-multi-pass

Default                                  : Yes

Forced                                   : No

Color range                              : Limited

Color primaries                          : BT.709

Transfer characteristics                 : BT.709

Matrix coefficients                      : BT.709

Audio #1
ID                                       : 2

Format                                   : AAC

Format/Info                              : Advanced Audio Codec

Format profile                           : LC

Codec ID                                 : A_AAC

Duration                                 : 2 h 37 min

Bit rate                                 : 423 kb/s

Channel(s)                               : 8 channels

Channel positions                        : Front: L C R, Side: 4, LFE

Sampling rate                            : 48.0 kHz

Frame rate                               : 46.875 FPS (1024 spf)

Compression mode                         : Lossy

Delay relative to video                  : 20 ms

Stream size                              : 478 MiB (6%)

Language                                 : English

Default                                  : No

Forced                                   : No

Audio #2
ID                                       : 3

Format                                   : E-AC-3

Format/Info                              : Enhanced Audio Coding 3

Format settings, Endianness              : Big

Codec ID                                 : A_EAC3

Duration                                 : 2 h 37 min

Bit rate mode                            : Constant

Bit rate                                 : 96.0 kb/s

Channel(s)                               : 2 channels

Channel positions                        : Front: L R

Sampling rate                            : 48.0 kHz

Frame rate                               : 187.500 FPS (256 spf)

Compression mode                         : Lossy

Stream size                              : 108 MiB (1%)

Language                                 : French

Default                                  : No

Forced                                   : No

Audio #3
ID                                       : 4

Format                                   : E-AC-3

Format/Info                              : Enhanced Audio Coding 3

Format settings, Endianness              : Big

Codec ID                                 : A_EAC3

Duration                                 : 2 h 37 min

Bit rate mode                            : Constant

Bit rate                                 : 96.0 kb/s

Channel(s)                               : 2 channels

Channel positions                        : Front: L R

Sampling rate                            : 48.0 kHz

Frame rate                               : 187.500 FPS (256 spf)

Compression mode                         : Lossy

Stream size                              : 108 MiB (1%)

Language                                 : German

Default                                  : No

Forced                                   : No

Audio #4
ID                                       : 5

Format                                   : E-AC-3

Format/Info                              : Enhanced Audio Coding 3

Format settings, Endianness              : Big

Codec ID                                 : A_EAC3

Duration                                 : 2 h 37 min

Bit rate mode                            : Constant

Bit rate                                 : 96.0 kb/s

Channel(s)                               : 2 channels

Channel positions                        : Front: L R

Sampling rate                            : 48.0 kHz

Frame rate                               : 187.500 FPS (256 spf)

Compression mode                         : Lossy

Stream size                              : 108 MiB (1%)

Language                                 : Hindi

Default                                  : No

Forced                                   : No

Audio #5
ID                                       : 6

Format                                   : E-AC-3

Format/Info                              : Enhanced Audio Coding 3

Format settings, Endianness              : Big

Codec ID                                 : A_EAC3

Duration                                 : 2 h 37 min

Bit rate mode                            : Constant

Bit rate                                 : 96.0 kb/s

Channel(s)                               : 2 channels

Channel positions                        : Front: L R

Sampling rate                            : 48.0 kHz

Frame rate                               : 187.500 FPS (256 spf)

Compression mode                         : Lossy

Stream size                              : 108 MiB (1%)

Language                                 : Italian

Default                                  : No

Forced                                   : No

Audio #6
ID                                       : 7

Format                                   : E-AC-3

Format/Info                              : Enhanced Audio Coding 3

Format settings, Endianness              : Big

Codec ID                                 : A_EAC3

Duration                                 : 2 h 37 min

Bit rate mode                            : Constant

Bit rate                                 : 96.0 kb/s

Channel(s)                               : 2 channels

Channel positions                        : Front: L R

Sampling rate                            : 48.0 kHz

Frame rate                               : 187.500 FPS (256 spf)

Compression mode                         : Lossy

Stream size                              : 108 MiB (1%)

Language                                 : Japanese

Default                                  : No

Forced                                   : No

Audio #7
ID                                       : 8

Format                                   : E-AC-3

Format/Info                              : Enhanced Audio Coding 3

Format settings, Endianness              : Big

Codec ID                                 : A_EAC3

Duration                                 : 2 h 37 min

Bit rate mode                            : Constant

Bit rate                                 : 96.0 kb/s

Channel(s)                               : 2 channels

Channel positions                        : Front: L R

Sampling rate                            : 48.0 kHz

Frame rate                               : 187.500 FPS (256 spf)

Compression mode                         : Lossy

Stream size                              : 108 MiB (1%)

Language                                 : Spanish

Default                                  : No

Forced                                   : No

Audio #8
ID                                       : 9

Format                                   : E-AC-3

Format/Info                              : Enhanced Audio Coding 3

Format settings, Endianness              : Big

Codec ID                                 : A_EAC3

Duration                                 : 2 h 37 min

Bit rate mode                            : Constant

Bit rate                                 : 96.0 kb/s

Channel(s)                               : 2 channels

Channel positions                        : Front: L R

Sampling rate                            : 48.0 kHz

Frame rate                               : 187.500 FPS (256 spf)

Compression mode                         : Lossy

Stream size                              : 108 MiB (1%)

Language                                 : Thai

Default                                  : No

Forced                                   : No

Subtitle #1
ID                                       : 10

Format                                   : PGS

Muxing mode                              : zlib

Codec ID                                 : S_HDMV/PGS

Codec ID/Info                            : Picture based subtitle format used on BDs/HD-DVDs

Duration                                 : 2 h 37 min

Bit rate                                 : 37.7 kb/s

Count of elements                        : 4364

Stream size                              : 42.5 MiB (1%)

Title                                    : English-SDH-PGS

Language                                 : English

Default                                  : No

Forced                                   : No

Subtitle #2
ID                                       : 11

Format                                   : UTF-8

Codec ID                                 : S_TEXT/UTF8

Codec ID/Info                            : UTF-8 Plain Text

Duration                                 : 2 h 35 min

Bit rate                                 : 59 b/s

Count of elements                        : 1915

Stream size                              : 67.8 KiB (0%)

Title                                    : English-SRT

Language                                 : English

Default                                  : No

Forced                                   : No

Subtitle #3
ID                                       : 12

Format                                   : VobSub

Muxing mode                              : zlib

Codec ID                                 : S_VOBSUB

Codec ID/Info                            : Picture based subtitle format used on DVDs

Duration                                 : 2 h 26 min

Bit rate                                 : 10.2 kb/s

Count of elements                        : 1812

Stream size                              : 10.7 MiB (0%)

Language                                 : English

Default                                  : No

Forced                                   : No

Subtitle #4
ID                                       : 13

Format                                   : VobSub

Muxing mode                              : zlib

Codec ID                                 : S_VOBSUB

Codec ID/Info                            : Picture based subtitle format used on DVDs

Duration                                 : 2 h 37 min

Bit rate                                 : 11.3 kb/s

Count of elements                        : 2183

Stream size                              : 12.7 MiB (0%)

Language                                 : English

Default                                  : No

Forced                                   : No

Subtitle #5
ID                                       : 14

Format                                   : VobSub

Muxing mode                              : zlib

Codec ID                                 : S_VOBSUB

Codec ID/Info                            : Picture based subtitle format used on DVDs

Duration                                 : 2 h 26 min

Bit rate                                 : 10.2 kb/s

Count of elements                        : 1812

Stream size                              : 10.7 MiB (0%)

Language                                 : English

Default                                  : No

Forced                                   : No

Subtitle #6
ID                                       : 15

Format                                   : VobSub

Muxing mode                              : zlib

Codec ID                                 : S_VOBSUB

Codec ID/Info                            : Picture based subtitle format used on DVDs

Duration                                 : 2 h 36 min

Bit rate                                 : 5 087 b/s

Count of elements                        : 1910

Stream size                              : 5.68 MiB (0%)

Language                                 : Arabic

Default                                  : No

Forced                                   : No

Subtitle #7
ID                                       : 16

Format                                   : VobSub

Muxing mode                              : zlib

Codec ID                                 : S_VOBSUB

Codec ID/Info                            : Picture based subtitle format used on DVDs

Duration                                 : 2 h 36 min

Bit rate                                 : 9 499 b/s

Count of elements                        : 1917

Stream size                              : 10.6 MiB (0%)

Language                                 : Chinese

Default                                  : No

Forced                                   : No

Subtitle #8
ID                                       : 17

Format                                   : VobSub

Muxing mode                              : zlib

Codec ID                                 : S_VOBSUB

Codec ID/Info                            : Picture based subtitle format used on DVDs

Duration                                 : 2 h 26 min

Bit rate                                 : 8 471 b/s

Count of elements                        : 1990

Stream size                              : 8.86 MiB (0%)

Language                                 : Chinese

Default                                  : No

Forced                                   : No

Subtitle #9
ID                                       : 18

Format                                   : VobSub

Muxing mode                              : zlib

Codec ID                                 : S_VOBSUB

Codec ID/Info                            : Picture based subtitle format used on DVDs

Duration                                 : 2 h 36 min

Bit rate                                 : 7 362 b/s

Count of elements                        : 1818

Stream size                              : 8.23 MiB (0%)

Language                                 : Czech

Default                                  : No

Forced                                   : No

Subtitle #10
ID                                       : 19

Format                                   : VobSub

Muxing mode                              : zlib

Codec ID                                 : S_VOBSUB

Codec ID/Info                            : Picture based subtitle format used on DVDs

Duration                                 : 2 h 36 min

Bit rate                                 : 8 253 b/s

Count of elements                        : 1674

Stream size                              : 9.23 MiB (0%)

Language                                 : Danish

Default                                  : No

Forced                                   : No

Subtitle #11
ID                                       : 20

Format                                   : VobSub

Muxing mode                              : zlib

Codec ID                                 : S_VOBSUB

Codec ID/Info                            : Picture based subtitle format used on DVDs

Duration                                 : 2 h 26 min

Bit rate                                 : 9 858 b/s

Count of elements                        : 1907

Stream size                              : 10.3 MiB (0%)

Language                                 : Dutch

Default                                  : No

Forced                                   : No

Subtitle #12
ID                                       : 21

Format                                   : VobSub

Muxing mode                              : zlib

Codec ID                                 : S_VOBSUB

Codec ID/Info                            : Picture based subtitle format used on DVDs

Duration                                 : 2 h 26 min

Bit rate                                 : 10.0 kb/s

Count of elements                        : 1873

Stream size                              : 10.5 MiB (0%)

Language                                 : Estonian

Default                                  : No

Forced                                   : No

Subtitle #13
ID                                       : 22

Format                                   : VobSub

Muxing mode                              : zlib

Codec ID                                 : S_VOBSUB

Codec ID/Info                            : Picture based subtitle format used on DVDs

Duration                                 : 2 h 26 min

Bit rate                                 : 8 329 b/s

Count of elements                        : 1647

Stream size                              : 8.72 MiB (0%)

Language                                 : Finnish

Default                                  : No

Forced                                   : No

Subtitle #14
ID                                       : 23

Format                                   : VobSub

Muxing mode                              : zlib

Codec ID                                 : S_VOBSUB

Codec ID/Info                            : Picture based subtitle format used on DVDs

Duration                                 : 2 h 36 min

Bit rate                                 : 7 332 b/s

Count of elements                        : 1836

Stream size                              : 8.19 MiB (0%)

Language                                 : French

Default                                  : No

Forced                                   : No

Subtitle #15
ID                                       : 24

Format                                   : VobSub

Muxing mode                              : zlib

Codec ID                                 : S_VOBSUB

Codec ID/Info                            : Picture based subtitle format used on DVDs

Duration                                 : 2 h 26 min

Bit rate                                 : 9 677 b/s

Count of elements                        : 1739

Stream size                              : 10.1 MiB (0%)

Language                                 : German

Default                                  : No

Forced                                   : No

Subtitle #16
ID                                       : 25

Format                                   : VobSub

Muxing mode                              : zlib

Codec ID                                 : S_VOBSUB

Codec ID/Info                            : Picture based subtitle format used on DVDs

Duration                                 : 2 h 27 min

Bit rate                                 : 10.4 kb/s

Count of elements                        : 1872

Stream size                              : 10.9 MiB (0%)

Language                                 : Greek

Default                                  : No

Forced                                   : No

Subtitle #17
ID                                       : 26

Format                                   : VobSub

Muxing mode                              : zlib

Codec ID                                 : S_VOBSUB

Codec ID/Info                            : Picture based subtitle format used on DVDs

Duration                                 : 2 h 36 min

Bit rate                                 : 7 952 b/s

Count of elements                        : 1874

Stream size                              : 8.89 MiB (0%)

Language                                 : Hungarian

Default                                  : No

Forced                                   : No

Subtitle #18
ID                                       : 27

Format                                   : VobSub

Muxing mode                              : zlib

Codec ID                                 : S_VOBSUB

Codec ID/Info                            : Picture based subtitle format used on DVDs

Duration                                 : 2 h 36 min

Bit rate                                 : 8 388 b/s

Count of elements                        : 1706

Stream size                              : 9.37 MiB (0%)

Language                                 : Italian

Default                                  : No

Forced                                   : No

Subtitle #19
ID                                       : 28

Format                                   : VobSub

Muxing mode                              : zlib

Codec ID                                 : S_VOBSUB

Codec ID/Info                            : Picture based subtitle format used on DVDs

Duration                                 : 2 h 35 min

Bit rate                                 : 6 776 b/s

Count of elements                        : 1871

Stream size                              : 7.56 MiB (0%)

Language                                 : Japanese

Default                                  : No

Forced                                   : No

Subtitle #20
ID                                       : 29

Format                                   : VobSub

Muxing mode                              : zlib

Codec ID                                 : S_VOBSUB

Codec ID/Info                            : Picture based subtitle format used on DVDs

Duration                                 : 2 h 36 min

Bit rate                                 : 5 784 b/s

Count of elements                        : 1827

Stream size                              : 6.46 MiB (0%)

Language                                 : Korean

Default                                  : No

Forced                                   : No

Subtitle #21
ID                                       : 30

Format                                   : VobSub

Muxing mode                              : zlib

Codec ID                                 : S_VOBSUB

Codec ID/Info                            : Picture based subtitle format used on DVDs

Duration                                 : 2 h 26 min

Bit rate                                 : 11.5 kb/s

Count of elements                        : 2073

Stream size                              : 12.1 MiB (0%)

Language                                 : Lithuanian

Default                                  : No

Forced                                   : No

Subtitle #22
ID                                       : 31

Format                                   : VobSub

Muxing mode                              : zlib

Codec ID                                 : S_VOBSUB

Codec ID/Info                            : Picture based subtitle format used on DVDs

Duration                                 : 2 h 36 min

Bit rate                                 : 7 440 b/s

Count of elements                        : 1692

Stream size                              : 8.31 MiB (0%)

Language                                 : Norwegian Bokmal

Default                                  : No

Forced                                   : No

Subtitle #23
ID                                       : 32

Format                                   : VobSub

Muxing mode                              : zlib

Codec ID                                 : S_VOBSUB

Codec ID/Info                            : Picture based subtitle format used on DVDs

Duration                                 : 2 h 36 min

Bit rate                                 : 8 561 b/s

Count of elements                        : 1826

Stream size                              : 9.57 MiB (0%)

Language                                 : Polish

Default                                  : No

Forced                                   : No

Subtitle #24
ID                                       : 33

Format                                   : VobSub

Muxing mode                              : zlib

Codec ID                                 : S_VOBSUB

Codec ID/Info                            : Picture based subtitle format used on DVDs

Duration                                 : 2 h 36 min

Bit rate                                 : 8 146 b/s

Count of elements                        : 1921

Stream size                              : 9.11 MiB (0%)

Language                                 : Portuguese

Default                                  : No

Forced                                   : No

Subtitle #25
ID                                       : 34

Format                                   : VobSub

Muxing mode                              : zlib

Codec ID                                 : S_VOBSUB

Codec ID/Info                            : Picture based subtitle format used on DVDs

Duration                                 : 2 h 36 min

Bit rate                                 : 9 920 b/s

Count of elements                        : 1939

Stream size                              : 11.1 MiB (0%)

Language                                 : Russian

Default                                  : No

Forced                                   : No

Subtitle #26
ID                                       : 35

Format                                   : VobSub

Muxing mode                              : zlib

Codec ID                                 : S_VOBSUB

Codec ID/Info                            : Picture based subtitle format used on DVDs

Duration                                 : 2 h 36 min

Bit rate                                 : 8 171 b/s

Count of elements                        : 1961

Stream size                              : 9.14 MiB (0%)

Language                                 : Spanish

Default                                  : No

Forced                                   : No

Subtitle #27
ID                                       : 36

Format                                   : VobSub

Muxing mode                              : zlib

Codec ID                                 : S_VOBSUB

Codec ID/Info                            : Picture based subtitle format used on DVDs

Duration                                 : 2 h 36 min

Bit rate                                 : 9 132 b/s

Count of elements                        : 1901

Stream size                              : 10.2 MiB (0%)

Language                                 : Spanish

Default                                  : No

Forced                                   : No

Subtitle #28
ID                                       : 37

Format                                   : VobSub

Muxing mode                              : zlib

Codec ID                                 : S_VOBSUB

Codec ID/Info                            : Picture based subtitle format used on DVDs

Duration                                 : 2 h 36 min

Bit rate                                 : 8 206 b/s

Count of elements                        : 1497

Stream size                              : 9.17 MiB (0%)

Language                                 : Swedish

Default                                  : No

Forced                                   : No

Subtitle #29
ID                                       : 38

Format                                   : VobSub

Muxing mode                              : zlib

Codec ID                                 : S_VOBSUB

Codec ID/Info                            : Picture based subtitle format used on DVDs

Duration                                 : 2 h 36 min

Bit rate                                 : 8 171 b/s

Count of elements                        : 1928

Stream size                              : 9.13 MiB (0%)

Language                                 : Thai

Default                                  : No

Forced                                   : No

Subtitle #30
ID                                       : 39

Format                                   : VobSub

Muxing mode                              : zlib

Codec ID                                 : S_VOBSUB

Codec ID/Info                            : Picture based subtitle format used on DVDs

Duration                                 : 2 h 26 min

Bit rate                                 : 10.6 kb/s

Count of elements                        : 1912

Stream size                              : 11.1 MiB (0%)

Language                                 : Turkish

Default                                  : No

Forced                                   : No

Subtitle #31
ID                                       : 40

Format                                   : UTF-8

Codec ID                                 : S_TEXT/UTF8

Codec ID/Info                            : UTF-8 Plain Text

Duration                                 : 2 h 27 min

Bit rate                                 : 127 b/s

Count of elements                        : 1840

Stream size                              : 138 KiB (0%)

Language                                 : Bengali

Default                                  : No

Forced                                   : No

Subtitle #32
ID                                       : 41

Format                                   : UTF-8

Codec ID                                 : S_TEXT/UTF8

Codec ID/Info                            : UTF-8 Plain Text

Duration                                 : 2 h 27 min

Bit rate                                 : 89 b/s

Count of elements                        : 1920

Stream size                              : 96.9 KiB (0%)

Language                                 : Persian

Default                                  : No

Forced                                   : No

Subtitle #33
ID                                       : 42

Format                                   : UTF-8

Codec ID                                 : S_TEXT/UTF8

Codec ID/Info                            : UTF-8 Plain Text

Duration                                 : 2 h 27 min

Bit rate                                 : 96 b/s

Count of elements                        : 1861

Stream size                              : 104 KiB (0%)

Language                                 : Greek

Default                                  : No

Forced                                   : No

Subtitle #34
ID                                       : 43

Format                                   : UTF-8

Codec ID                                 : S_TEXT/UTF8

Codec ID/Info                            : UTF-8 Plain Text

Duration                                 : 2 h 37 min

Bit rate                                 : 85 b/s

Count of elements                        : 1899

Stream size                              : 98.2 KiB (0%)

Language                                 : Hebrew

Default                                  : No

Forced                                   : No

Subtitle #35
ID                                       : 44

Format                                   : UTF-8

Codec ID                                 : S_TEXT/UTF8

Codec ID/Info                            : UTF-8 Plain Text

Duration                                 : 2 h 27 min

Bit rate                                 : 69 b/s

Count of elements                        : 1892

Stream size                              : 74.9 KiB (0%)

Language                                 : Indonesian

Default                                  : No

Forced                                   : No

Subtitle #36
ID                                       : 45

Format                                   : UTF-8

Codec ID                                 : S_TEXT/UTF8

Codec ID/Info                            : UTF-8 Plain Text

Duration                                 : 2 h 26 min

Bit rate                                 : 59 b/s

Count of elements                        : 1913

Stream size                              : 63.6 KiB (0%)

Language                                 : Malay

Default                                  : No

Forced                                   : No

Subtitle #37
ID                                       : 46

Format                                   : UTF-8

Codec ID                                 : S_TEXT/UTF8

Codec ID/Info                            : UTF-8 Plain Text

Duration                                 : 2 h 27 min

Bit rate                                 : 81 b/s

Count of elements                        : 1907

Stream size                              : 88.2 KiB (0%)

Language                                 : Vietnamese

Default                                  : No

Forced                                   : No

Menu
00:00:00.000                             : en:Chapter 01

00:11:55.631                             : en:Chapter 02

00:21:59.192                             : en:Chapter 03

00:28:48.560                             : en:Chapter 04

00:34:38.993                             : en:Chapter 05

00:44:49.103                             : en:Chapter 06

00:55:27.615                             : en:Chapter 07

01:05:10.364                             : en:Chapter 08

01:16:26.248                             : en:Chapter 09

01:25:03.473                             : en:Chapter 10

01:36:35.998                             : en:Chapter 11

01:46:48.026                             : en:Chapter 12

01:56:50.378                             : en:Chapter 13

02:04:53.819                             : en:Chapter 14

02:16:40.734                             : en:Chapter 15

02:23:22.969                             : en:Chapter 16

Source Information

Code:

Release:
2012 (2009) 2160p.BluRay.AI.DTS.UTR.mkv (73.63 GBs)

Code:


Note From UTR
Whilst we are happy for our releases to be re-posted on a platform we aren’t on, please do so in an ‘as-is’ format. We ask that you do not create a new torrent, include all descriptions you see above including the UTR logo, tags, notes and screenshots. If you’d like to become a permanent poster on a website we don’t post to, feel free to get in contact with a UTR member.

If possible please donate for seedboxes.

BTC – 1QA5fum5AyXvWzdVCkQzUNvw3Ef15fHRaR

Monero – 8AuksPSzY7fen3HHT1a2342PgVy4J93MKfXG3AAcayV76miTyJ3sNfn38srwrpLirGfeR5DwhTL8GW8pdQgT7bZcJ25ynMx

Dash – Xh4mNs6uwZdpCEX2HSEVwGvPD7yKxZ1Ccd

Ethereum – 0x51c06c94e74c16735a7a6e841ad29fc90a84eb1f

2012 (2009) (1080p BluRay AI Download Torrent Magnet

#1080p #BluRay