12 Rounds 3 Lockdown (2015) 1 Full Torrent Magnet Download

Download Torrent 12 Rounds 3 Lockdown (2015) 1 Movie Full in HD Result. Movie 12 Rounds 3 Lockdown (2015) 1 Torrent Download full. Movie 12 Rounds 3 Lockdown (2015) 1 torrent Magnet Download Full. 12 Rounds 3 Lockdown (2015) 1 Full Movie Torrent Download And Magnet Download For your PC And Mobiles. Latest Movie 12 Rounds 3 Lockdown (2015) 1 Download Link In Bottom.

Torrent And Magnet Links Below

General

Unique ID : 9390709950461055773939605152685581697 (0x71095BF3C2A30338C194462DD476581)

Complete name : 12.Rounds.3.Lockdown.2015.1080p.Blu-Ray.Multi.Audio.Hin.Eng.Tam.Tel.ESub.x264.Shadow.mkv

Format : Matroska

Format version : Version 4 / Version 2

File size : 1.80 GiB

Duration : 1h 30mn

Overall bit rate : 2 866 Kbps

Movie name : -=: 12 Rounds 3: Lockdown :=- -: Released By : – Shadow

Encoded date : UTC 2021-01-31 18:39:11

Writing application : mkvmerge v43.0.0 (‘The Quartermaster’) 64-bit

Writing library : libebml v1.3.10 + libmatroska v1.5.2

Attachments : www.1TamilMV.us.png

Video

ID : 1

Format : AVC

Format/Info : Advanced Video Codec

Format profile : [email protected]
Format settings, CABAC : Yes

Format settings, ReFrames : 4 frames

Codec ID : V_MPEG4/ISO/AVC

Duration : 1h 30mn

Bit rate : 2 050 Kbps

Width : 1 422 pixels

Height : 800 pixels

Display aspect ratio : 16:9

Frame rate mode : Constant

Frame rate : 23.976 (24000/1001) fps

Color space : YUV

Chroma subsampling : 4:2:0

Bit depth : 8 bits

Scan type : Progressive

Bits/(Pixel*Frame) : 0.075

Stream size : 1.29 GiB (72%)

Title : -=: 12 Rounds 3: Lockdown :=- -: Released By : – Shadow

Writing library : x264 core 142 r2479 dd79a61

Encoding settings : cabac=1 / ref=4 / deblock=1:-1:-1 / analyse=0x3:0x133 / me=umh / subme=9 / psy=1 / psy_rd=1.00:0.15 / mixed_ref=1 / me_range=24 / chroma_me=1 / trellis=2 / 8x8dct=1 / cqm=0 / deadzone=21,11 / fast_pskip=0 / chroma_qp_offset=-3 / threads=12 / lookahead_threads=1 / sliced_threads=0 / nr=0 / decimate=1 / interlaced=0 / bluray_compat=0 / constrained_intra=0 / bframes=3 / b_pyramid=2 / b_adapt=2 / b_bias=0 / direct=3 / weightb=1 / open_gop=0 / weightp=2 / keyint=250 / keyint_min=23 / scenecut=40 / intra_refresh=0 / rc_lookahead=60 / rc=2pass / mbtree=1 / bitrate=2050 / ratetol=1.0 / qcomp=0.60 / qpmin=0 / qpmax=69 / qpstep=4 / cplxblur=20.0 / qblur=0.5 / vbv_maxrate=31250 / vbv_bufsize=31250 / nal_hrd=none / filler=0 / ip_ratio=1.40 / aq=1:1.00

Language : English

Default : Yes

Forced : No

Color range : Limited

Color primaries : BT.709

Transfer characteristics : BT.709

Matrix coefficients : BT.709

Audio #1

ID : 2

Format : AAC

Format/Info : Advanced Audio Codec

Format profile : LC

Codec ID : A_AAC

Duration : 1h 30mn

Bit rate : 196 Kbps

Channel(s) : 2 channels

Channel positions : Front: L R

Sampling rate : 48.0 KHz

Frame rate : 46.875 fps (1024 spf)

Compression mode : Lossy

Stream size : 126 MiB (7%)

Title : -=: 12 Rounds 3: Lockdown :=- -: Released By : – Shadow

Language : Tamil

Default : No

Forced : No

Audio #2

ID : 3

Format : AAC

Format/Info : Advanced Audio Codec

Format profile : LC

Codec ID : A_AAC

Duration : 1h 30mn

Bit rate : 196 Kbps

Channel(s) : 2 channels

Channel positions : Front: L R

Sampling rate : 48.0 KHz

Frame rate : 46.875 fps (1024 spf)

Compression mode : Lossy

Stream size : 126 MiB (7%)

Title : -=: 12 Rounds 3: Lockdown :=- -: Released By : – Shadow

Language : Telugu

Default : No

Forced : No

Audio #3

ID : 4

Format : AAC

Format/Info : Advanced Audio Codec

Format profile : LC

Codec ID : A_AAC

Duration : 1h 30mn

Bit rate : 196 Kbps

Channel(s) : 2 channels

Channel positions : Front: L R

Sampling rate : 48.0 KHz

Frame rate : 46.875 fps (1024 spf)

Compression mode : Lossy

Stream size : 126 MiB (7%)

Title : -=: 12 Rounds 3: Lockdown :=- -: Released By : – Shadow

Language : Hindi

Default : Yes

Forced : Yes

Audio #4

ID : 5

Format : AAC

Format/Info : Advanced Audio Codec

Format profile : LC

Codec ID : A_AAC

Duration : 1h 30mn

Bit rate : 224 Kbps

Channel(s) : 6 channels

Channel positions : Front: L C R, Side: L R, LFE

Sampling rate : 48.0 KHz

Frame rate : 46.875 fps (1024 spf)

Compression mode : Lossy

Stream size : 144 MiB (8%)

Title : -=: 12 Rounds 3: Lockdown :=- -: Released By : – Shadow

Language : English

Default : No

Forced : No

Text

ID : 6

Format : UTF-8

Codec ID : S_TEXT/UTF8

Codec ID/Info : UTF-8 Plain Text

Duration : 1h 21mn

Bit rate : 36 bps

Count of elements : 790

Stream size : 22.1 KiB (0%)

Title : -=: 12 Rounds 3: Lockdown :=- -: Released By : – Shadow

Language : English

Default : Yes

Forced : No

12 Rounds 3 Lockdown (2015) 1Download Torrent Magnet

#Rounds #Lockdown