1. Step Up 2006 x264 720p Esu Full Torrent Magnet Download

Download Torrent 1. Step Up 2006 x264 720p Esu Movie Full in HD Result. Movie 1. Step Up 2006 x264 720p Esu Torrent Download full. Movie 1. Step Up 2006 x264 720p Esu torrent Magnet Download Full. 1. Step Up 2006 x264 720p Esu Full Movie Torrent Download And Magnet Download For your PC And Mobiles. Latest Movie 1. Step Up 2006 x264 720p Esu Download Link In Bottom.

Torrent And Magnet Links Below

Greets

Admin , Moderator , Noir, Ex0duS5150, theeshiznit, MisterQ, UserHEVC, miok, Silmarillion, Mr. Blue, MaDHeX and many more ;

Join Us On TeleGram

https://t.me/gopisahit

Step Up 2006 x264 720p Esub BluRay Dual Audio English Hindi THE GOPI SAHI

Format : Matroska

Format version : Version 4

File size : 820 MiB

Duration : 1 h 43 min

Overall bit rate : 1 108 kb/s

Movie name : Step Up 2006 GOPISAHI

Encoded date : UTC 2019-11-10 14:21:38

Writing application : mkvmerge v35.0.0 (‘All The Love In The World’) 64-bit

Writing library : libebml v1.3.9 + libmatroska v1.5.2

Attachments : RONIN.jpg

Video

ID : 1

Format : AVC

Format/Info : Advanced Video Codec

Format profile : [email protected]
Format settings : CABAC / 12 Ref Frames

Format settings, CABAC : Yes

Format settings, Reference fra : 12 frames

Codec ID : V_MPEG4/ISO/AVC

Duration : 1 h 43 min

Bit rate : 899 kb/s

Width : 1 248 pixels

Height : 534 pixels

Display aspect ratio : 2.35:1

Frame rate mode : Constant

Frame rate : 23.976 (24000/1001) FPS

Color space : YUV

Chroma subsampling : 4:2:0

Bit depth : 8 bits

Scan type : Progressive

Bits/(Pixel*Frame) : 0.056

Stream size : 666 MiB (81%)

Title : GOPISAHI

Writing library : x264 core 157 r2935 545de2f

Audio #1

ID : 2

Format : AAC LC

Format/Info : Advanced Audio Codec Low Complexity

Codec ID : A_AAC-2

Duration : 1 h 43 min

Bit rate : 96.0 kb/s

Channel(s) : 2 channels

Channel layout : L R

Sampling rate : 48.0 kHz

Frame rate : 46.875 FPS (1024 SPF)

Compression mode : Lossy

Delay relative to video : -26 ms

Stream size : 71.0 MiB (9%)

Title : GOPISAHI

Language : Hindi

Default : Yes

Forced : No

Audio #2

ID : 3

Format : AAC LC

Format/Info : Advanced Audio Codec Low Complexity

Codec ID : A_AAC-2

Duration : 1 h 43 min

Bit rate : 96.0 kb/s

Channel(s) : 2 channels

Channel layout : L R

Sampling rate : 48.0 kHz

Frame rate : 46.875 FPS (1024 SPF)

Compression mode : Lossy

Delay relative to video : -26 ms

Stream size : 71.3 MiB (9%)

Title : GOPISAHI

Language : English

Default : No

Forced : No

Text

ID : 4

Format : PGS

Muxing mode : zlib

Codec ID : S_HDMV/PGS

Codec ID/Info : Picture based subtitle format used on BDs/HD-DVDs

Duration : 1 h 42 min

Bit rate : 45.6 kb/s

Count of elements : 3354

Stream size : 33.5 MiB (4%)

Title : GOPISAHI

Language : English

Default : Yes

Forced : No

Menu

00:00:00.000 : :Opening Titles

00:09:00.540 : :Maryland School of the Performing Arts

00:16:31.657 : :Grace Period

00:23:52.765 : :A New Dance Partner

00:30:43.175 : :Rehearsals

00:38:46.991 : :Quitting

00:46:06.097 : :A Different Routine

00:55:13.977 : :What Do You Want?

01:06:03.960 : :Replaced

01:15:07.837 : :Breaking the Rules

01:26:51.206 : :Senior Showcase

01:39:22.623 : :End Credits

1. Step Up 2006 x264 720p EsuDownload Torrent Magnet

#Step #x264 #720p #Esu